<?xml version="1.0" standalone="no"?>
<!DOCTYPE svg PUBLIC "-//W3C//DTD SVG 1.1//EN" "http://www.w3.org/Graphics/SVG/1.1/DTD/svg11.dtd" >
<svg xmlns="http://www.w3.org/2000/svg" xmlns:xlink="http://www.w3.org/1999/xlink" version="1.1">
<metadata>
Created by FontForge 20170731 at Tue Nov 12 13:40:28 2019
 By Aleksey,,,
Copyright 2016 The Dancing Script Project Authors (impallari@gmail.com), with Reserved Font Name 'Dancing Script'.
</metadata>
<defs>
<font id="DancingScript-Bold" horiz-adv-x="0" >
  <font-face 
    font-family="Dancing Script"
    font-weight="700"
    font-stretch="normal"
    units-per-em="1000"
    panose-1="0 0 0 0 0 0 0 0 0 0"
    ascent="800"
    descent="-200"
    x-height="298"
    cap-height="719"
    bbox="-197 -306 1388 1096"
    underline-thickness="50"
    underline-position="-225"
    unicode-range="U+000D-FB02"
  />
<missing-glyph horiz-adv-x="428" 
d="M0 0v720h428v-720h-428zM80 70h268v580h-268v-580z" />
    <glyph glyph-name="fi" unicode="fi" horiz-adv-x="575" 
d="M-1 -280q-11 0 -26.5 7t-27 27.5t-11.5 59.5q0 44 14.5 113.5t40 154.5t60 174t74 171.5t82 148.5t84.5 105t81 39q26 0 34 -15t8 -35q0 -43 -23.5 -94t-62.5 -102.5t-87.5 -98t-99.5 -80.5q-4 -9 -7.5 -16t-6.5 -18q14 -7 23 -26q15 -43 38.5 -61t50.5 -18
q33 0 66.5 18.5t58.5 43.5q15 33 33 62t38 46.5t40 17.5q13 0 21.5 -7.5t8.5 -21.5q0 -13 -15.5 -40t-36.5 -61t-36.5 -71t-15.5 -70t12 -43.5t35 -10.5q34 0 73.5 34.5t84.5 121.5l16 -15q-34 -89 -90 -139.5t-119 -50.5q-43 0 -66 26.5t-23 63.5q0 17 4.5 42t12.5 53
q-28 -18 -58.5 -28.5t-60.5 -10.5q-14 0 -30.5 3t-34.5 9q2 -13 3.5 -26.5t1.5 -25.5q0 -63 -13 -126t-35.5 -115t-51.5 -83.5t-61 -31.5zM26 -218q14 0 30 27t30.5 71t24 94.5t9.5 96.5q0 22 -2.5 41.5t-7.5 36t-14 28.5q-25 -71 -44.5 -138.5t-30 -122t-10.5 -89.5
q0 -45 15 -45zM168 366q59 55 102 109t66.5 96t23.5 61q0 7 -8 7q-24 0 -55 -36.5t-64 -98.5t-65 -138zM528 422q-19 0 -34.5 9.5t-15.5 29.5q0 16 12.5 29.5t31.5 21.5t37 8q19 0 30 -8.5t11 -29.5t-21.5 -40.5t-50.5 -19.5z" />
    <glyph glyph-name="fl" unicode="fl" horiz-adv-x="574" 
d="M-1 -280q-11 0 -26.5 7t-27 27.5t-11.5 59.5q0 44 14.5 113.5t40 154.5t60 174t74 171.5t82 148.5t84.5 105t81 39q26 0 34 -15t8 -35q0 -43 -23.5 -94t-62.5 -102.5t-87.5 -98t-99.5 -80.5q-4 -9 -7 -15.5t-7 -17.5q9 -5 15.5 -14t7.5 -20q9 -52 34 -73t58 -21
q24 0 50.5 9t50.5 22q12 54 34.5 115.5t52 124t61.5 119t62.5 101t56 70t41.5 25.5q13 0 22.5 -13.5t15 -32.5t5.5 -34q0 -27 -13.5 -70t-37.5 -95t-57.5 -106t-74.5 -102.5t-87 -85.5q-5 -26 -8.5 -52.5t-3.5 -47.5q0 -35 11.5 -52t30.5 -17q27 0 54.5 24t52 60.5
t41.5 75.5l25 -14q-43 -89 -93.5 -140.5t-109.5 -51.5q-52 0 -72 35t-20 86q0 16 3 35q-54 -26 -107 -26q-16 0 -33.5 4t-34.5 11q0 -9 1 -18t1 -17q0 -63 -13 -126t-35.5 -115t-51.5 -83.5t-61 -31.5zM26 -218q15 0 31 28.5t30 73t23 95t9 95.5q0 22 -4.5 49.5t-20.5 48.5
q-24 -72 -43 -139t-29.5 -121t-10.5 -87q0 -43 15 -43zM168 366q59 55 102 109t66.5 96t23.5 61q0 7 -8 7q-24 0 -55 -36.5t-64 -98.5t-65 -138zM439 238q21 23 47 56.5t52.5 73t49.5 81.5t39.5 83t20.5 77q1 6 1 11t-2 6q-7 2 -25 -20t-42 -61.5t-50 -90t-50 -106
t-41 -110.5z" />
    <glyph glyph-name="b_r" unicode="br" horiz-adv-x="771" 
d="M106 -73q-57 0 -86.5 35.5t-29.5 97.5q0 50 17 117t45 140.5t63 144t71 127.5t68 91t55 34q20 0 30 -23t10 -48q0 -27 -12 -67t-34 -84.5t-51 -88.5t-63.5 -80t-71.5 -57q-7 -13 -17.5 -45t-19 -72.5t-8.5 -79.5q0 -40 12.5 -65t41.5 -25q26 0 55 20.5t48 51.5
q-37 20 -56 56t-19 76q0 48 26 78.5t65 30.5q32 0 53 -24.5t21 -77.5q0 -27 -6.5 -57.5t-20.5 -62.5q3 -1 5.5 -1h5.5q40 0 70 25.5t53 64.5t39 81t27 75q-4 5 -6.5 10.5t-2.5 14.5q0 29 17 52t33 23q13 0 16.5 -13t3.5 -18q0 -8 -5.5 -20t-5.5 -18q0 -9 16.5 -19.5t38 -25
t38 -36.5t16.5 -55q0 -29 -12 -60t-24.5 -58t-12.5 -47q0 -13 7.5 -17.5t17.5 -4.5q24 0 49.5 15t49 38.5t42 49.5t28.5 48l18 -12q-20 -44 -52.5 -87.5t-73.5 -72.5t-87 -29q-37 0 -60.5 19.5t-23.5 53.5q0 28 13.5 61t27 64.5t13.5 55.5q0 25 -15.5 39t-34.5 26
q-13 -41 -30.5 -86t-43 -84.5t-62 -64t-86.5 -24.5q-6 0 -12.5 0.5t-13.5 1.5q-28 -45 -69.5 -76.5t-97.5 -31.5zM246 84q8 19 13 39.5t5 45.5q0 31 -7.5 50.5t-21.5 19.5q-13 0 -22.5 -18t-9.5 -44q0 -24 10 -50t33 -43zM136 329q24 23 47 52.5t43 62.5t35.5 64.5t25.5 58
t13 43.5q1 3 1 7.5t-2 3.5q-9 -2 -29 -28t-45 -68t-48.5 -93t-40.5 -103z" />
    <glyph glyph-name="e_e" unicode="ee" horiz-adv-x="682" 
d="M458 -49q-61 0 -94 32.5t-38 78.5q-43 -50 -98 -78t-111 -28q-65 0 -99.5 34.5t-34.5 85.5q0 44 22.5 93t60.5 92.5t84 71t94 27.5q26 0 48.5 -13t22.5 -53q0 -37 -22 -69.5t-59 -57.5t-81.5 -41t-89.5 -21q-1 -4 -1.5 -10.5t-0.5 -14.5q0 -18 6 -36.5t22.5 -31.5
t49.5 -13q53 0 103.5 34.5t88.5 86.5q9 41 32 81t56.5 73t73 53t80.5 20q27 0 49.5 -13t22.5 -54q0 -49 -34.5 -87t-89 -61.5t-115.5 -30.5q-1 -5 -1.5 -10.5t-0.5 -13.5q0 -18 5.5 -37t21.5 -32.5t48 -13.5q43 0 86.5 25t81 65.5t61.5 87.5l18 -14q-27 -60 -69.5 -106.5
t-93.5 -73.5t-105 -27zM74 137q28 10 59.5 26.5t60 38t46.5 46t18 50.5q0 8 -3.5 12.5t-14.5 4.5q-21 0 -45.5 -15.5t-48 -41.5t-42.5 -57.5t-30 -63.5zM417 137q26 9 55.5 22.5t55.5 31.5t43 40.5t17 49.5q0 12 -4 16.5t-15 4.5q-28 0 -58 -23.5t-55 -61t-39 -80.5z" />
    <glyph glyph-name="l_l" unicode="ll" horiz-adv-x="490" 
d="M94 -30q-47 0 -69.5 31t-22.5 80q0 47 18 112t47.5 137t65 141t71.5 125.5t66.5 90t49.5 33.5q13 0 22 -13.5t14.5 -32.5t5.5 -36q0 -26 -13.5 -68.5t-38 -93.5t-58 -104.5t-74 -102t-86.5 -84.5q-4 -25 -7.5 -52.5t-3.5 -47.5q0 -69 43 -69q22 0 45.5 18.5t45.5 49
t40 66.5q10 51 30 110t46.5 118.5t56.5 114t59 97t53.5 67t40.5 24.5q13 0 22.5 -13.5t15 -33t5.5 -37.5q0 -31 -17 -81.5t-48.5 -110t-76.5 -117.5t-102 -103q-5 -23 -8 -49t-3 -46q0 -74 41 -74q26 0 53 23.5t51 60.5t41 75l25 -13q-42 -89 -91.5 -140.5t-108.5 -51.5
q-46 0 -68 30t-23 78q-34 -51 -72.5 -79.5t-82.5 -28.5zM110 241q33 35 63.5 77.5t56.5 86.5t45.5 85t30.5 74t11 52v8t-2 4q-7 0 -25 -22.5t-41.5 -61.5t-49 -88.5t-49 -105t-40.5 -109.5zM356 240q40 42 73.5 90.5t58 96t38 87t13.5 62.5v7.5t-1 4.5q-10 0 -31.5 -29
t-48.5 -78.5t-54 -111.5t-48 -129z" />
    <glyph glyph-name="o_r" unicode="or" horiz-adv-x="746" 
d="M79 -32q-46 0 -68 27.5t-22 67.5q0 52 18.5 97t47 81.5t61.5 62.5t62.5 40t48.5 14q5 0 14 -2t13 -10q3 2 6.5 3t7.5 1q28 0 36.5 -16t8.5 -35q0 -17 -9.5 -39t-19 -48.5t-9.5 -60.5q0 -18 10.5 -27.5t24.5 -9.5q39 0 64 17.5t41 46.5t27 63.5t21 68.5q-9 11 -9 25
q0 22 9 38.5t20.5 26t18.5 9.5q16 0 19 -12t3 -19q0 -5 -5.5 -18t-5.5 -18q0 -10 16.5 -20.5t37.5 -24.5t37.5 -35.5t16.5 -53.5q0 -30 -12 -60t-24 -56t-12 -45q0 -15 7.5 -19.5t17.5 -4.5q23 0 48.5 14.5t49.5 37.5t43 48.5t28 46.5l20 -14q-20 -43 -53 -85t-74.5 -70
t-86.5 -28q-37 0 -60.5 20t-23.5 51q0 29 13 61t26 62t13 54q0 26 -17 42.5t-36 26.5q-12 -36 -26.5 -74t-35.5 -69.5t-53 -51t-80 -19.5q-13 0 -29.5 4t-27.5 8q-27 -53 -70.5 -86.5t-86.5 -33.5zM98 18q13 0 32.5 13t39 34.5t30.5 45.5q-21 28 -21 84q0 12 3.5 32t10 41.5
t15.5 36.5q-20 -19 -40.5 -42.5t-38.5 -49t-32 -51t-22 -50t-8 -46.5q0 -27 8.5 -37.5t22.5 -10.5z" />
    <glyph glyph-name="t_h" unicode="th" horiz-adv-x="791" 
d="M95 -46q-47 0 -74.5 26t-27.5 78q0 29 8 69t21.5 85.5t29.5 89.5l-16.5 5.5t-19.5 7.5v31q18 -3 27 -5.5t22 -4.5q28 71 60 131t62 96t52 36q11 0 20 -8t9 -18q0 -12 -12 -39t-30.5 -60.5t-37 -66.5t-33 -57t-17.5 -31q26 -4 48 -6.5t44 -2.5q29 0 60 4t69 11
q27 72 60 141.5t67.5 125t66 89t55.5 33.5q20 0 31 -22.5t11 -48.5q0 -33 -17 -80t-47 -97t-70.5 -94t-87.5 -71q-13 -30 -23.5 -74.5t-16.5 -86.5t-6 -67q24 63 54 116t67.5 85t81.5 32q46 0 67 -30.5t21 -66.5q0 -29 -10.5 -58.5t-21 -56t-10.5 -47.5q0 -18 8.5 -25
t18.5 -7q22 0 51.5 22.5t58 59.5t47.5 79l19 -18q-22 -50 -53 -92t-68.5 -66.5t-79.5 -24.5q-38 0 -58.5 20t-20.5 50q0 21 7.5 45.5t14.5 50.5t7 48q0 23 -9.5 33t-25.5 10q-24 0 -43.5 -19.5t-35.5 -50.5t-30 -65.5t-27.5 -65.5t-28 -50.5t-31.5 -19.5q-15 0 -24.5 15
t-15.5 36t-8 41.5t-2 31.5q-40 -58 -93.5 -94.5t-113.5 -36.5zM124 4q50 0 100.5 43.5t87.5 119.5q6 30 13 57t18 59q-30 -6 -58 -9t-55 -3t-54 3t-55 8q-22 -49 -36 -99t-14 -102q0 -41 11.5 -59t41.5 -18zM448 364q29 25 54 56t44.5 63.5t33 62t18.5 51.5q3 14 3 22
q-8 -2 -25.5 -22t-40.5 -54.5t-46 -80t-41 -98.5z" />
    <glyph glyph-name="v_r" unicode="vr" horiz-adv-x="776" 
d="M73 -39q-37 0 -51 35t-14 88q0 14 1 47.5t2 70.5q2 29 7 40.5t32 11.5q23 0 28.5 -8.5t5.5 -31.5q0 -19 -1.5 -46.5t-3 -55.5t-1.5 -48q0 -30 5 -40.5t15 -10.5q17 0 38 19.5t42.5 51t42 67.5t35.5 69q1 69 15 91.5t35 22.5q24 0 34.5 -16t11.5 -28l-7 -19t-14 -45.5
t-7 -49.5q0 -22 9.5 -36t31.5 -14q25 0 45 17.5t35.5 45.5t28 60t22.5 61q-3 5 -5.5 10.5t-2.5 15.5q0 26 15.5 49.5t34.5 23.5q9 0 13.5 -5.5t4.5 -13.5q0 -11 -5 -26t-5 -21q0 -10 16.5 -21t37.5 -26t37.5 -37.5t16.5 -55.5q0 -29 -12 -58.5t-24 -55t-12 -44.5
q0 -13 7.5 -17.5t17.5 -4.5q24 0 49 15t48.5 38t42.5 49t29 47l18 -11q-19 -43 -51.5 -86.5t-74 -72.5t-87.5 -29q-37 0 -60 20t-23 52q0 28 13.5 60t26.5 63.5t13 54.5t-15 38.5t-35 25.5q-11 -31 -25.5 -65.5t-34 -65t-46.5 -50t-62 -19.5q-31 0 -55.5 16.5t-35.5 41.5
q-25 -46 -57.5 -88t-67.5 -69t-68 -27z" />
    <glyph glyph-name="w_r" unicode="wr" horiz-adv-x="996" 
d="M296 -39q-34 0 -48 31t-14 81q0 17 1 28.5t2 25.5q-21 -38 -45 -74.5t-51 -59.5t-58 -23q-35 0 -59 31t-24 75q0 29 9.5 67t24 74t30 60t27.5 24q5 0 15.5 -3.5t20 -10t9.5 -15.5q-11 -18 -26.5 -52.5t-27 -71.5t-11.5 -65q0 -8 2 -22.5t9 -26t21 -11.5q21 0 46 27
t50.5 68.5t47.5 84.5q8 42 13 60t11.5 22.5t17.5 4.5q17 0 27 -4.5t14 -19.5q-8 -32 -17.5 -88t-9.5 -112q0 -25 3.5 -39t14.5 -14q14 0 34 20t42 52t43 69t37 71q0 54 5.5 76.5t16 27.5t26.5 5q23 0 33.5 -16t11.5 -29q-7 -10 -17.5 -40t-10.5 -59q0 -25 10.5 -39.5
t32.5 -14.5q24 0 43.5 16.5t35 43t28 56.5t22.5 58q-4 5 -6.5 11.5t-2.5 16.5q0 26 17.5 48.5t33.5 22.5q14 0 16.5 -13.5t2.5 -16.5q0 -9 -6 -19t-6 -18q0 -10 16.5 -20.5t38 -25t38 -35.5t16.5 -54q0 -29 -12 -58.5t-24 -56t-12 -46.5q0 -14 7 -18.5t17 -4.5q24 0 49.5 15
t50 38t42.5 48.5t27 46.5l22 -14q-19 -43 -52.5 -85.5t-76 -70.5t-87.5 -28q-37 0 -60 19.5t-23 52.5q0 28 13 59.5t26 62.5t13 55q0 26 -16 41.5t-33 23.5q-11 -30 -26 -63t-35 -62.5t-45.5 -48t-58.5 -18.5q-28 0 -51 15t-36 43q-19 -34 -42.5 -68t-49 -62t-51.5 -45
t-52 -17z" />
    <glyph glyph-name=".notdef" horiz-adv-x="428" 
d="M0 0v720h428v-720h-428zM80 70h268v580h-268v-580z" />
    <glyph glyph-name=".null" 
 />
    <glyph glyph-name="nonmarkingreturn" horiz-adv-x="333" 
 />
    <glyph glyph-name="NULL" 
 />
    <glyph glyph-name="NULL" 
 />
    <glyph glyph-name="CR" unicode="&#xd;" horiz-adv-x="260" 
 />
    <glyph glyph-name="space" unicode=" " horiz-adv-x="260" 
 />
    <glyph glyph-name="exclam" unicode="!" horiz-adv-x="295" 
d="M115 297q22 57 46 117t48 114.5t47 98t44.5 68.5t40.5 25q11 0 19.5 -8.5t8.5 -21.5q0 -14 -16.5 -55t-43.5 -98t-60 -121t-66 -125.5t-62 -110.5t-48 -76l-6 2l-6 2q1 26 9.5 59t21 67.5t23.5 62.5zM40 -10q-16 0 -28 8t-12 26q0 19 20.5 33t44.5 14q15 0 24.5 -7
t9.5 -24t-18 -33.5t-41 -16.5z" />
    <glyph glyph-name="quotedbl" unicode="&#x22;" horiz-adv-x="270" 
d="M293 576q-15 8 -21.5 19.5t-6.5 24.5q0 20 9 43.5t23.5 41t30.5 17.5q12 0 22 -10t11 -27q-22 -22 -41 -53t-27 -56zM179 576q-15 8 -21.5 19.5t-6.5 24.5q0 20 9 43.5t23.5 41t30.5 17.5q12 0 22 -10t11 -27q-22 -22 -41 -53t-27 -56z" />
    <glyph glyph-name="numbersign" unicode="#" horiz-adv-x="720" 
d="M114 -162q21 25 41 74t39 114.5t36 138.5q-34 -1 -68 -4t-77 -6l-66 -5q2 31 31.5 48.5t80.5 25.5t114 9q2 11 4.5 24.5t4.5 23.5q-29 0 -61.5 -3t-71.5 -6l-66 -5q2 30 31 47t77 25.5t107 9.5q20 102 35.5 185.5t26.5 135.5q3 16 12.5 30t48.5 22q-4 -20 -14 -75
l-24 -132t-30 -164q33 -1 62 -1.5t60 -2.5q22 102 37 186t25 137q3 16 13.5 30t48.5 22q-4 -16 -10.5 -52.5t-15.5 -87t-20 -111.5t-24 -127q52 -2 113.5 -6t110.5 -4q-40 -34 -70 -40t-55 -6q-32 0 -59 -0.5t-50 -0.5q-4 -19 -7 -33.5t-5 -27.5q45 -2 103.5 -5.5
t104.5 -3.5q-40 -34 -69 -40t-54 -6h-50.5t-45.5 -1q-21 -109 -42 -183t-52 -111.5t-82 -37.5q21 25 41.5 75t39.5 115.5t35 138.5h-119q-22 -108 -42 -181.5t-50.5 -110.5t-82.5 -37zM422 230l12 56h-65t-57 -2l-10 -51q32 0 61.5 -0.5t58.5 -2.5z" />
    <glyph glyph-name="dollar" unicode="$" horiz-adv-x="565" 
d="M150 -162q15 20 29 47t25 58q-50 5 -93.5 23t-70.5 51t-27 81q0 47 24 77t60 44.5t70 14.5q-33 -34 -49 -70t-16 -68q0 -46 31.5 -73t86.5 -34q17 59 33.5 127.5t32.5 143.5q-36 19 -69.5 41t-55 53t-21.5 77q0 56 30 102.5t81 78t113 41.5q0 14 8 28.5t23 25.5t35 13
q-3 -13 -6 -27t-8 -37q68 -1 94 -31.5t26 -77.5q0 -40 -13.5 -83t-37.5 -83q-23 5 -35 19t-12 30q0 17 9 43t18 53.5t9 47.5q0 21 -14 32t-51 12q-13 -74 -26.5 -147t-27.5 -148q37 -18 71.5 -40.5t57 -55t22.5 -81.5q0 -60 -32.5 -103.5t-86 -68.5t-116.5 -31
q-19 -51 -48.5 -78t-72.5 -27zM286 -10q64 8 99.5 42.5t35.5 83.5q0 41 -24 68t-59 48q-16 -83 -29.5 -148t-22.5 -94zM306 349q14 74 28 144.5t22 118.5q-43 -10 -74 -35.5t-47.5 -57.5t-16.5 -64q0 -38 25.5 -62.5t62.5 -43.5z" />
    <glyph glyph-name="percent" unicode="%" horiz-adv-x="740" 
d="M88 -87q25 24 62.5 76.5t82 122.5t90 148.5t87 155.5t74.5 143.5t50 111.5q4 11 19 22t35 19t38 8q-4 -16 -23.5 -59t-48.5 -101.5t-64 -124.5t-70 -131t-66.5 -119t-53.5 -88q-53 -82 -103.5 -133t-108.5 -51zM203 339q-47 0 -70.5 34.5t-23.5 79.5q0 34 10.5 71.5
t30.5 70.5t48.5 54t63.5 21q43 0 70 -29.5t27 -79.5q0 -32 -11 -70.5t-31.5 -73t-49 -56.5t-64.5 -22zM209 391q17 0 32 17t26.5 43.5t18 57t6.5 57.5q0 24 -6.5 39t-21.5 15q-21 0 -36.5 -17.5t-26 -44.5t-16 -55.5t-5.5 -51.5q0 -26 7.5 -43t21.5 -17zM548 -1
q-48 0 -71 34t-23 79q0 34 10.5 71.5t30 70.5t48 54t64.5 21q43 0 69.5 -29.5t26.5 -79.5q0 -32 -11 -70t-31 -72.5t-48.5 -56.5t-64.5 -22zM553 51q17 0 32.5 16.5t27 43.5t18 57t6.5 57q0 24 -7 39.5t-22 15.5q-21 0 -36.5 -18t-26 -45.5t-16 -56.5t-5.5 -52
q0 -26 8 -41.5t21 -15.5z" />
    <glyph glyph-name="ampersand" unicode="&#x26;" horiz-adv-x="675" 
d="M231 -87q-64 0 -112.5 25.5t-75 67.5t-26.5 93q0 45 19 88t53 79t81 60.5t102 32.5q-35 32 -53.5 71t-18.5 79q0 54 27 102t76.5 78t114.5 30q60 0 91.5 -28.5t31.5 -82.5q0 -38 -13 -74.5t-32 -60t-38 -23.5q-14 0 -26.5 12.5t-21.5 28.5q37 30 61.5 63t24.5 68
q0 28 -16 45.5t-51 17.5q-45 0 -76 -26t-47 -67.5t-16 -90.5q0 -23 4.5 -51t20.5 -56.5t48 -54.5q-72 -11 -125 -49.5t-82 -89.5t-29 -101q0 -30 12.5 -62t41.5 -54t76 -22q54 0 103 25t89.5 67.5t66.5 95.5t33 109q-19 -1 -36.5 -3t-40 -6t-59.5 -11q1 51 34 68t79 17
q32 0 58.5 -4t53 -8.5t59.5 -4.5q-16 -33 -28.5 -39.5t-24.5 -6.5q-18 0 -30.5 -0.5t-25.5 -0.5q-7 -68 -38.5 -130t-80.5 -111t-110 -77t-128 -28z" />
    <glyph glyph-name="quotesingle" unicode="'" horiz-adv-x="156" 
d="M179 576q-15 8 -21.5 19.5t-6.5 24.5q0 20 9 43.5t23.5 41t30.5 17.5q12 0 22 -10t11 -27q-22 -22 -41 -53t-27 -56z" />
    <glyph glyph-name="parenleft" unicode="(" horiz-adv-x="295" 
d="M178 -87q-28 15 -51 56t-36.5 99.5t-13.5 123.5q0 95 23 176.5t59.5 146.5t79 110.5t83.5 70t71 24.5q-64 -49 -110 -112.5t-75 -135t-43 -146t-14 -145.5q0 -79 15 -140t40 -99q-6 -12 -13 -18.5t-15 -10.5z" />
    <glyph glyph-name="parenright" unicode=")" horiz-adv-x="315" 
d="M0 -87q-9 0 -19 12.5t-15 21.5q73 48 132 122t94.5 171t35.5 214q0 65 -16 131.5t-73 139.5q33 -8 69.5 -45t61.5 -99.5t25 -147.5q0 -90 -22.5 -169t-58 -143.5t-76 -111t-77.5 -71.5t-61 -25z" />
    <glyph glyph-name="asterisk" unicode="*" horiz-adv-x="416" 
d="M390 404q-22 23 -48 57.5t-51 69.5q-25 -46 -52.5 -80t-67.5 -36q16 22 28 43.5t22.5 43t21.5 41.5q-39 0 -73 7.5t-43 38.5q23 1 55 2t60 3q-20 30 -32.5 57t-12.5 45q0 17 10.5 24t10.5 13q25 -44 39 -71.5t31 -50.5q14 44 40 77.5t66 42.5q-13 -37 -31 -70t-33 -66
q26 0 50.5 -2.5t48.5 -11t46 -26.5l-135 -11q13 -17 24 -34.5t18 -42t8 -63.5z" />
    <glyph glyph-name="plus" unicode="+" horiz-adv-x="441" 
d="M171 -7q4 29 5.5 53t2 48.5t0.5 53.5q-30 0 -54.5 -1t-50.5 -3.5t-61 -7.5q12 35 56.5 48.5t107.5 14.5v41q0 25 7 52t32 64q3 -24 8 -67.5t6 -89.5q51 -1 101 -4.5t77 -5.5q-36 -25 -69.5 -33t-56.5 -8h-51q0 -41 -5 -75t-17.5 -55.5t-37.5 -24.5z" />
    <glyph glyph-name="comma" unicode="," horiz-adv-x="216" 
d="M32 -88q-13 8 -20 19.5t-7 24.5q0 20 9 44t23.5 41.5t30.5 17.5q13 0 22.5 -10t9.5 -23q-24 -27 -37 -52t-31 -62z" />
    <glyph glyph-name="hyphen" unicode="-" horiz-adv-x="507" 
d="M55 142q7 22 28 35t47 19t49 7.5t35 1.5q13 0 43 -1t65 -2t65 -2t43 -2q-10 -23 -45.5 -38.5t-76.5 -15.5q-21 0 -54 3t-71 3q-25 0 -52 -1.5t-47.5 -3.5t-28.5 -3z" />
    <glyph glyph-name="period" unicode="." horiz-adv-x="242" 
d="M72 -10q-24 0 -34 12.5t-10 25.5q0 11 10 23.5t25 21t28 8.5q11 0 22 -6.5t11 -24.5q0 -8 -6 -22.5t-17.5 -26t-28.5 -11.5z" />
    <glyph glyph-name="slash" unicode="/" horiz-adv-x="355" 
d="M-63 -162q23 22 52 69t61 110t65 135.5t64.5 147.5t60 145.5t51.5 128.5t38 97q4 11 20 22t38.5 18.5t47.5 7.5q-4 -12 -19.5 -48.5t-38 -90t-49 -116t-54.5 -128t-54 -126t-47 -109t-33 -77.5q-38 -88 -94 -137t-109 -49z" />
    <glyph glyph-name="zero" unicode="0" horiz-adv-x="660" 
d="M273 -87q-71 0 -117.5 36.5t-69.5 98t-23 137.5q0 65 16.5 138.5t48 143.5t77 127.5t103.5 91.5t128 34q65 0 114 -32t76 -94t27 -152q0 -73 -18.5 -148t-52.5 -143t-81 -122t-104.5 -85t-123.5 -31zM287 -39q45 0 86.5 33t75.5 88.5t59.5 124t39.5 139.5t14 135
q0 57 -12.5 101.5t-40 70.5t-73.5 26q-45 0 -82.5 -25t-68 -67.5t-53.5 -96t-38 -111t-23 -112t-8 -99.5q0 -94 33 -150.5t91 -56.5z" />
    <glyph glyph-name="one" unicode="1" horiz-adv-x="392" 
d="M72 -87q-35 0 -60 14.5t-46 41.5q17 -1 27.5 -2t24.5 -1q22 0 50 3t54 7q17 40 33 99t30 126.5t26 135.5t23 127t20 100q-53 -35 -75.5 -46t-36.5 -11q-13 0 -21 8.5t-8 32.5q20 10 57.5 35.5t82.5 61t86 74.5q7 -6 10 -16.5t3 -22.5q0 -23 -8.5 -48t-13.5 -60
q-10 -66 -22.5 -139.5t-29 -150.5t-39 -152.5t-52.5 -144.5q9 1 17 1.5t18 0.5q38 0 67.5 -13.5t39.5 -57.5q-25 3 -48.5 4.5t-43.5 1.5q-29 0 -61 -2t-60 -4.5t-44 -2.5z" />
    <glyph glyph-name="two" unicode="2" horiz-adv-x="599" 
d="M438 -87q-33 0 -74.5 12.5t-86 29.5t-85.5 32q-33 -19 -62.5 -30t-56.5 -11q-34 0 -56.5 16.5t-22.5 44.5q0 24 19.5 38.5t64.5 14.5q23 0 50.5 -3.5t58.5 -9.5q46 39 92.5 97.5t85.5 126.5t63 138t24 132q0 71 -30.5 104.5t-77.5 33.5q-45 0 -75 -27t-44.5 -68
t-14.5 -83q0 -24 4.5 -44t14.5 -43q-4 0 -9 0.5t-10 1.5q-29 3 -53 24t-24 72q0 54 28.5 101.5t78.5 77t115 29.5q60 0 100.5 -26t61 -70.5t20.5 -100.5q0 -40 -10.5 -83.5t-29.5 -87.5q-25 -60 -63.5 -118.5t-84.5 -109.5t-95 -91q65 -14 119 -23.5t87 -9.5q25 0 43.5 7
t49.5 24q-16 -61 -43.5 -89.5t-71.5 -28.5zM71 -13q14 0 29 5.5t32 15.5q-19 6 -35.5 9t-27.5 3q-18 0 -24 -5.5t-6 -10.5q1 -7 10.5 -12t21.5 -5z" />
    <glyph glyph-name="three" unicode="3" horiz-adv-x="542" 
d="M201 -87q-66 0 -106 23.5t-58 58t-18 67.5q0 26 10 51.5t29.5 42.5t49.5 17q5 0 12 -0.5t23 -3.5q-19 -15 -30.5 -43t-11.5 -54q0 -28 13.5 -54t38 -42.5t56.5 -16.5q39 0 75 26t59.5 72.5t23.5 106.5q0 38 -12 75.5t-41.5 67t-81.5 42.5q56 24 96 65t62 88.5t22 88.5
q0 49 -28 68.5t-62 19.5q-27 0 -52.5 -11t-42 -32.5t-16.5 -51.5q0 -16 5 -33.5t15 -35.5q-6 -12 -20.5 -23.5t-28.5 -11.5t-25 13.5t-16.5 34t-5.5 40.5q0 48 29 82t75 52t95 18q43 0 81.5 -16t63.5 -47.5t25 -77.5q0 -30 -11.5 -63t-33 -63t-51 -54t-64.5 -38
q53 -18 84 -50t44.5 -69.5t13.5 -72.5q0 -46 -20.5 -91.5t-59 -83t-90.5 -59.5t-115 -22z" />
    <glyph glyph-name="four" unicode="4" horiz-adv-x="508" 
d="M341 -87q-46 3 -70 17.5t-24 36.5q0 6 1.5 21.5t7 48t15.5 88.5q5 21 10 49.5t10 55.5q-20 2 -41 3t-29 1q-10 0 -33 -1t-52 -2.5t-57.5 -4t-49 -5t-26.5 -5.5q0 26 15 44t35 37q36 33 87.5 82.5t109.5 107.5t111 118.5t92 114.5q8 -4 16.5 -11.5t8.5 -23.5
q0 -24 -20 -55q-5 -23 -15 -71t-23 -115.5t-28 -147.5h8h7q38 0 58.5 2.5t42.5 8.5q-24 -33 -56 -54.5t-65 -23.5h-3h-4q-1 -3 -3 -15.5t-5 -32.5q-4 -27 -9.5 -62.5t-10.5 -73.5t-8 -73t-3 -59zM119 298q20 2 42 2.5t48 0.5t50.5 -0.5t46.5 -1.5q13 61 25.5 116t27.5 104
q-30 -28 -63.5 -58t-66.5 -60t-64 -58q-12 -12 -23.5 -23t-22.5 -22z" />
    <glyph glyph-name="five" unicode="5" horiz-adv-x="513" 
d="M195 -87q-70 0 -110.5 23.5t-58 57.5t-17.5 67q0 26 9.5 52t29 43t49.5 17q5 0 12.5 -0.5t23.5 -3.5q-19 -15 -30.5 -42.5t-11.5 -57.5q0 -27 10.5 -52t33.5 -41.5t59 -16.5q39 0 69.5 19t52 50t32.5 68.5t11 74.5q0 40 -14 74.5t-43.5 56t-78.5 21.5q-19 0 -46 -3.5
t-59 -9.5q5 33 15 77.5t23 92.5t26.5 93.5t24 82.5t16.5 59q34 -8 62.5 -11t52.5 -3q43 0 83 6t83 14q3 -12 5 -20.5t2 -17.5q0 -29 -20.5 -46t-51.5 -24t-62 -7q-37 0 -65.5 6t-48.5 6q-4 0 -7.5 -3t-6.5 -8q-9 -13 -18 -39t-17.5 -57t-16 -62t-13.5 -55.5t-10 -36.5
q20 4 40.5 6t41.5 2q72 0 120 -25.5t72 -69.5t24 -101q0 -70 -34.5 -128.5t-97 -93t-145.5 -34.5z" />
    <glyph glyph-name="six" unicode="6" horiz-adv-x="592" 
d="M282 -87q-79 0 -128.5 33.5t-72.5 91.5t-23 130q0 65 17.5 140t50.5 148t81.5 132.5t110.5 95.5t136 36q46 0 76.5 -15.5t30.5 -48.5q0 -16 -11.5 -31t-48.5 -25q1 8 1.5 17t0.5 16q0 21 -10 35.5t-42 14.5q-47 0 -88 -31t-74.5 -83t-59 -115t-41.5 -127q34 26 77 40
t89 14q53 0 98.5 -21t73.5 -65t28 -114q0 -75 -34 -136t-95 -96.5t-143 -35.5zM287 -41q38 0 68 19.5t51 52t32.5 73t11.5 81.5q0 52 -17 84.5t-47.5 48t-69.5 15.5q-55 0 -88.5 -27t-48.5 -69.5t-15 -91.5q0 -27 5.5 -59t18.5 -61t37.5 -47.5t61.5 -18.5z" />
    <glyph glyph-name="seven" unicode="7" horiz-adv-x="439" 
d="M125 -87q-16 0 -29.5 13t-13.5 39q0 27 16 74.5t45 111.5t67 141q-19 0 -44 -1.5t-50.5 -3.5t-47.5 -5q1 31 21.5 47.5t55 23.5t75.5 8h13.5h13.5q26 41 65.5 108.5t92.5 152.5q-24 0 -50 -1.5t-51.5 -3t-49.5 -1.5q-68 0 -93.5 15.5t-25.5 38.5q0 21 17 49
q31 -5 62.5 -10t64.5 -7.5t67 -2.5q49 0 100.5 6.5t93.5 19.5q-16 -21 -31.5 -41.5t-29.5 -40.5q-46 -65 -84.5 -132.5t-79.5 -153.5q20 -2 39 -3t39 -1q16 0 32.5 1.5t32.5 5.5q-24 -32 -47.5 -50t-50.5 -18h-36h-39q-18 -41 -38 -90t-34 -96t-14 -82q0 -13 3 -24t13 -18
q-19 -39 -47 -54t-43 -15z" />
    <glyph glyph-name="eight" unicode="8" horiz-adv-x="561" 
d="M236 -87q-55 0 -92 16t-59 42t-32 56t-10 57q0 44 20 78.5t52 64t70 56.5t74 54q-29 30 -56 62.5t-44 69.5t-17 83q0 60 29 96.5t74.5 53.5t92.5 17q73 0 120 -37.5t47 -112.5q0 -47 -19 -86t-50.5 -72t-71.5 -63q35 -34 65.5 -68t49 -71.5t18.5 -83.5q0 -64 -37.5 -112
t-97 -74t-126.5 -26zM245 -34q36 0 71 19t58.5 54t23.5 81q0 53 -30 95t-71 84q-44 -30 -84.5 -62.5t-66.5 -69.5t-26 -82q0 -37 18.5 -64t47 -41t59.5 -14zM327 387q46 38 75.5 81.5t29.5 99.5q0 55 -27 82.5t-65 27.5q-22 0 -46 -11t-41 -36t-17 -67q0 -52 26.5 -94
t64.5 -83z" />
    <glyph glyph-name="nine" unicode="9" horiz-adv-x="598" 
d="M215 -87q-46 0 -78 16t-32 50q0 16 11.5 31.5t46.5 25.5q0 -7 0.5 -15.5t1.5 -16.5q3 -21 14 -37.5t38 -16.5q47 0 86.5 31t71 83t54.5 115t36 127q-33 -25 -76 -39t-88 -14q-57 0 -103.5 23t-74 69.5t-27.5 114.5q0 76 32.5 134.5t91 92t137.5 33.5q86 0 137 -38.5
t73.5 -102t22.5 -138.5q0 -67 -16.5 -140.5t-48 -142t-77 -124t-104 -88.5t-129.5 -33zM341 301q73 0 107.5 46.5t34.5 123.5q0 30 -6 65.5t-20.5 66.5t-40 51t-63.5 20q-36 0 -65 -18.5t-48.5 -50t-30 -70t-10.5 -78.5q0 -52 18 -87t50 -52t74 -17z" />
    <glyph glyph-name="colon" unicode=":" horiz-adv-x="251" 
d="M128 228q-14 0 -27 8t-13 25q0 19 21.5 33t43.5 14q15 0 24 -7t9 -24q0 -16 -17.5 -32.5t-40.5 -16.5zM72 -10q-14 0 -27 8t-13 25q0 19 21 33t44 14q15 0 24 -7t9 -24q0 -16 -17.5 -32.5t-40.5 -16.5z" />
    <glyph glyph-name="semicolon" unicode=";" horiz-adv-x="250" 
d="M51 -88q-14 8 -21 20t-7 25q0 21 9.5 46.5t25 44.5t32.5 19q13 0 23.5 -10t11.5 -24q-25 -28 -40.5 -54.5t-33.5 -66.5zM128 229q-16 0 -28 8t-12 26q0 19 20.5 33t43.5 14q15 0 25 -7t10 -24q0 -16 -18 -33t-41 -17z" />
    <glyph glyph-name="less" unicode="&#x3c;" horiz-adv-x="328" 
d="M202 44q-19 0 -46 12.5t-54 32t-47 40t-25 36.5q37 13 73 38t67.5 56.5t54.5 63.5q5 -4 9.5 -14t4.5 -22q0 -20 -15 -39.5t-39 -37.5t-51.5 -34t-53.5 -29q20 -13 39.5 -24t48.5 -23.5t76 -29.5q-8 -9 -19 -17.5t-23 -8.5z" />
    <glyph glyph-name="equal" unicode="=" horiz-adv-x="517" 
d="M60 194q5 27 32 40t68.5 17t88.5 4q34 0 69.5 -2t66.5 -4.5t49 -4.5q-37 -25 -69 -32.5t-53 -7.5h-97q-29 0 -53 -0.5t-48.5 -2.5t-53.5 -7zM63 106q2 27 29 40t69.5 17t89.5 4q34 0 69.5 -2t66.5 -4.5t49 -4.5q-36 -25 -68.5 -32.5t-53.5 -7.5h-96q-29 0 -53 -0.5
t-48.5 -2.5t-53.5 -7z" />
    <glyph glyph-name="greater" unicode="&#x3e;" horiz-adv-x="337" 
d="M116 44q-14 0 -26 8.5t-18 17.5q47 17 75 29.5t47 23.5t38 24q-26 13 -55 29t-54 34t-41 37.5t-16 39.5q0 8 3 16.5t8 16.5q22 -27 56 -57.5t73 -56.5t76 -40q-4 -16 -23 -37t-45 -40.5t-52.5 -32t-45.5 -12.5z" />
    <glyph glyph-name="question" unicode="?" horiz-adv-x="462" 
d="M265 119q-25 13 -33.5 23.5t-8.5 32.5q0 47 19 85.5t47.5 73t57 69.5t47.5 75.5t19 90.5q0 54 -22 82.5t-55 28.5q-34 0 -68 -27t-56.5 -72t-22.5 -100q0 -17 2.5 -32.5t8.5 -35.5q-49 8 -65.5 30t-16.5 54q0 57 27 108t77 83t117 32q68 0 109 -35.5t41 -102.5
q0 -44 -16 -78.5t-40.5 -64t-52 -59t-51 -64t-37.5 -79.5q-10 -34 -12.5 -59.5t-14.5 -58.5zM222 -10q-16 0 -28 8.5t-12 24.5q0 20 21.5 34t43.5 14q15 0 25 -7t10 -22q0 -19 -18.5 -35.5t-41.5 -16.5z" />
    <glyph glyph-name="at" unicode="@" horiz-adv-x="613" 
d="M242 -121q-79 0 -129.5 30t-75 79t-24.5 104q0 56 23 110t66 97.5t104 69.5t137 26q78 0 128.5 -26.5t75.5 -69t25 -89.5q0 -37 -14 -73t-38.5 -66t-57.5 -48t-71 -18q-31 0 -47.5 12t-23.5 31q-2 8 -3 15.5t-1 15.5q-33 -39 -64.5 -63t-63.5 -24q-26 0 -46.5 18
t-20.5 54q0 35 20 77.5t53.5 81t74 63t82.5 24.5q35 0 58.5 -17t23.5 -40q0 -20 -10.5 -28.5t-23 -10.5t-17.5 -1q1 5 1.5 10t0.5 10q0 17 -4.5 31.5t-27.5 14.5q-28 0 -57.5 -23.5t-53.5 -59t-39 -72.5t-15 -63q0 -15 4.5 -20.5t10.5 -5.5q12 0 36 17.5t52 44.5t51.5 56.5
t34.5 53.5q13 -2 27.5 -10t14.5 -17q0 -12 -11.5 -30.5t-23 -39.5t-11.5 -39q0 -7 5.5 -16t24.5 -9q31 0 59 23t46.5 59.5t18.5 74.5q0 35 -18.5 69.5t-58.5 57.5t-105 23q-64 0 -116 -23t-89 -61.5t-56.5 -85t-19.5 -94.5q0 -42 18 -82t59.5 -66t111.5 -26q51 0 107 19
t111 69l14 -18q-41 -45 -101.5 -75.5t-140.5 -30.5z" />
    <glyph glyph-name="A" unicode="A" horiz-adv-x="631" 
d="M46 -87q-30 16 -38 33t-8 29q0 27 19.5 72.5t52.5 104.5t75 123q-31 2 -59 3t-72 1h-16q14 36 44.5 50.5t71.5 14.5q17 0 35.5 -2t38.5 -4q50 72 98.5 136t92 115.5t77.5 84.5q48 48 70 48q14 0 31.5 -11t36.5 -28q-10 -8 -25.5 -41t-33 -83.5t-35 -110.5t-31.5 -122
t-22.5 -118.5t-8.5 -99.5q0 -40 8 -59.5t27 -19.5q23 0 57 35t76 114l18 -19q-31 -82 -80.5 -135t-105.5 -53q-48 0 -68 41.5t-20 113.5q0 23 3 52t10 72q-44 7 -78 11t-65 8q-48 -85 -93 -176t-83 -180zM375 299q13 59 30.5 119.5t37 116t38.5 99.5q-30 -24 -67 -69
t-77.5 -106t-82.5 -133q30 -6 60 -13t61 -14z" />
    <glyph glyph-name="B" unicode="B" horiz-adv-x="650" 
d="M165 -87q-61 0 -92 20t-32 66q0 10 11 10q9 0 27.5 -4.5t70.5 -4.5q88 0 162 18.5t128.5 50t84.5 71t30 82.5q0 39 -23.5 62.5t-62 36t-84 16.5t-89.5 4q-19 0 -38 -0.5t-36 -0.5q-22 -76 -43 -157t-44 -159q-30 0 -52 16t-22 39q0 9 3.5 23.5t10.5 34.5q6 19 20.5 63
t34.5 104t44.5 126.5t51 130.5t52.5 115q-40 -9 -66 -21t-41 -21t-23 -9q-6 0 -15.5 7t-17 16t-7.5 16q54 22 112 39t140 17q36 0 79 -5.5t82 -22t64.5 -49t25.5 -86.5q0 -43 -18.5 -74.5t-49.5 -54t-68 -37t-73 -23.5q62 -8 103.5 -25.5t66 -40.5t35 -47.5t10.5 -47.5
q0 -59 -31 -106t-81.5 -82t-111 -58.5t-120.5 -35.5t-108 -12zM232 378q56 2 110 13t97.5 32.5t69.5 56t26 85.5q0 48 -26 74t-68 36t-90 10h-2h-2q-34 -67 -62 -145.5t-53 -161.5z" />
    <glyph glyph-name="C" unicode="C" horiz-adv-x="570" 
d="M250 -87q-76 0 -124.5 36t-71 93t-22.5 118q0 79 24 158.5t66.5 151.5t96.5 128t115.5 88.5t122.5 32.5q44 0 74 -20.5t30 -70.5q0 -30 -10.5 -67t-28 -71.5t-39.5 -56.5t-45 -22q-10 0 -21 7t-20 24q15 17 34 41.5t36 52t28 54t11 46.5q0 18 -10 28.5t-35 10.5
q-44 0 -90.5 -33t-89.5 -88.5t-77.5 -124t-54.5 -141t-20 -137.5q0 -48 14.5 -91.5t46.5 -71t84 -27.5q54 0 107.5 30t98 79t71.5 105l26 -17q-35 -67 -84 -122.5t-110.5 -89t-132.5 -33.5z" />
    <glyph glyph-name="D" unicode="D" horiz-adv-x="687" 
d="M191 -87q-35 0 -66.5 9.5t-54.5 40.5q3 24 14.5 70t28.5 104.5t36 120.5t37.5 118.5t33 99t21.5 61.5q3 8 10 24t18 33t25.5 28.5t31.5 11.5t38 -14q-31 -70 -62.5 -155.5t-60 -176t-52 -176t-38.5 -156.5q8 -3 22.5 -4.5t27.5 -1.5q65 0 124 31.5t108.5 84t86.5 118
t57 134.5t20 132q0 81 -27.5 131.5t-75.5 74t-110 23.5q-65 0 -117 -23.5t-81.5 -64t-29.5 -92.5q0 -11 2 -23.5t7 -24.5q-43 0 -61.5 18.5t-18.5 45.5q0 35 25.5 71t71 66.5t105.5 49t130 18.5q98 0 157 -37.5t85.5 -101t26.5 -141.5q0 -86 -27.5 -164.5t-76 -144.5
t-112 -115t-135 -76t-144.5 -27z" />
    <glyph glyph-name="E" unicode="E" horiz-adv-x="533" 
d="M209 -87q-64 0 -112 25.5t-74.5 68t-26.5 94.5q0 44 19 87t53.5 78.5t81 60t101.5 32.5q-36 32 -54 71t-18 80q0 53 27 101t76 78t114 30q61 0 94 -29.5t33 -85.5q0 -39 -14 -74.5t-33.5 -57.5t-38.5 -22q-14 0 -26.5 12.5t-21.5 28.5q37 30 62.5 64t25.5 70
q0 30 -20 45.5t-52 15.5q-45 0 -75.5 -27.5t-46 -70t-15.5 -87.5q0 -43 16 -86.5t58 -75.5q-72 -11 -125 -49.5t-82 -89.5t-29 -101q0 -30 12.5 -63t41 -55.5t76.5 -22.5q55 0 108 30.5t97.5 80.5t71.5 106l27 -17q-37 -69 -87 -124.5t-111 -88t-133 -32.5z" />
    <glyph glyph-name="F" unicode="F" horiz-adv-x="522" 
d="M188 -87q-53 4 -69.5 26t-16.5 55q0 37 13 89t34 111t46 117q-11 -1 -34.5 -3t-48 -4.5t-39.5 -5.5q3 31 23.5 48.5t53 25.5t70.5 9q26 72 53.5 140.5t55.5 125.5q-6 1 -14 1.5t-22 0.5q-61 0 -94.5 -13t-46 -37t-12.5 -59q0 -25 5 -45.5t15 -44.5q-47 8 -67 30.5
t-20 56.5q0 52 38.5 92t104 63t147.5 23q53 0 106 -7t99 -7q25 0 48 3.5t53 11.5q-48 -53 -78.5 -71t-59.5 -18q-24 0 -62 6.5t-82 9.5q-13 -32 -28 -74t-30.5 -90t-31.5 -99q52 -4 94 -9t93 -7q-12 -16 -24.5 -25.5t-33 -13.5t-56 -6t-92.5 -3q-8 -30 -17 -61t-15.5 -53
t-8.5 -27q-28 -96 -38.5 -156.5t-10.5 -105.5z" />
    <glyph glyph-name="G" unicode="G" horiz-adv-x="585" 
d="M238 -87q-56 0 -103 29.5t-75 86t-28 135.5q0 77 24 156t66 150.5t96 127.5t114.5 88.5t121.5 32.5q44 0 70 -16.5t37.5 -43.5t11.5 -58q0 -35 -12.5 -70t-34 -58t-47.5 -23q-12 0 -22 7t-20 26q15 10 33.5 35t32.5 55.5t14 54.5q0 20 -12.5 33.5t-41.5 13.5
q-45 0 -92.5 -33.5t-90.5 -89t-77.5 -124t-54.5 -140t-20 -135.5q0 -91 39.5 -141.5t94.5 -50.5q41 0 75.5 26t61 68.5t42.5 92.5t20 98q-25 5 -51.5 7.5t-55.5 2.5q-16 0 -32 -0.5t-34 -1.5q9 35 28.5 51.5t51.5 16.5q30 0 60.5 -9.5t62 -20.5t61.5 -18l-10 -31
q-18 -55 -29.5 -91.5t-17.5 -62t-8 -46t-2 -42.5q0 -20 1 -41.5t2 -52.5q-30 4 -44.5 17.5t-19 31.5t-4.5 35v10t1 10q-35 -43 -80.5 -70.5t-102.5 -27.5z" />
    <glyph glyph-name="H" unicode="H" horiz-adv-x="663" 
d="M72 -87q6 36 13.5 73t19 82t29 103t42.5 135q-15 -1 -32.5 -3t-32.5 -3q0 32 24 49t63 25q4 14 7 22t7 20t12 33.5t21.5 61.5t35.5 105q2 5 7 20t5 28q0 8 -2.5 11t-10.5 3q-20 0 -40.5 -18t-37.5 -45.5t-27 -57t-10 -52.5q0 -8 2 -18t8 -27q-42 0 -60.5 18.5t-18.5 47.5
q0 34 20.5 68t53 62.5t69 46t67.5 17.5q32 0 44 -17t12 -38q0 -11 -2.5 -22t-5.5 -21l-73 -240q12 1 24.5 1h25.5q49 0 92 -2t83 -6q25 84 42.5 138t31 89.5t24.5 62.5q4 8 11.5 21.5t22 24t38.5 10.5q-13 -35 -31.5 -92.5t-37.5 -125t-36 -133.5q14 0 39.5 -1.5t47.5 -1.5
q-31 -31 -55 -38.5t-44 -7.5q-11 -46 -20 -88t-15 -78q-12 -64 -17.5 -111.5t-5.5 -77.5q0 -16 1.5 -28.5t3.5 -24.5q-51 5 -69.5 24.5t-18.5 68.5q0 23 3.5 51t12.5 66q8 37 22 85t34 112q-61 0 -101 -1t-70 -2t-60 -4q-1 -4 -5 -17t-14 -46t-30 -97t-54 -172
q-11 -37 -38 -52.5t-46 -15.5z" />
    <glyph glyph-name="I" unicode="I" horiz-adv-x="503" 
d="M-18 -88q4 43 28 62.5t62 25.5t82 6q18 38 34.5 91.5t32 114.5t30 124.5t27.5 123t25 108.5t23 81q-51 -1 -90.5 -4t-74.5 -8t-72 -12q11 50 63 72t159 22q53 0 110 -4t105 -9t75 -9q-34 -32 -64 -39.5t-52 -7.5h-58.5t-49.5 -1q-7 -34 -15.5 -83t-19 -105t-20.5 -112
t-20 -104.5t-18 -80.5q-13 -52 -31 -95t-41 -65q53 -4 107 -10t119 -8q-40 -37 -76 -46.5t-59 -9.5q-67 0 -111.5 -0.5t-77.5 -2t-63.5 -5.5t-68.5 -10z" />
    <glyph glyph-name="J" unicode="J" horiz-adv-x="440" 
d="M104 -86q-26 0 -54.5 9.5t-48 38.5t-19.5 87q0 40 9.5 79.5t27.5 66t45 26.5q14 0 39 -11q-19 -47 -28.5 -88t-9.5 -73q0 -40 17 -63t45 -23q24 0 44.5 21.5t40.5 76.5q15 43 32 103.5t34 128.5t32 136t27 126.5t19 98.5q-48 -1 -84.5 -3.5t-67 -7.5t-62.5 -12
q7 47 50 67t130 20q42 0 87 -4t83.5 -9t59.5 -9q-16 -27 -44.5 -34t-46.5 -7q-16 0 -33 -0.5t-25 -0.5q7 -9 10 -19.5t3 -19.5q0 -13 -7 -56.5t-19.5 -106t-29.5 -132.5t-37.5 -137t-44.5 -120q-27 -58 -55 -90.5t-58 -45.5t-61 -13z" />
    <glyph glyph-name="K" unicode="K" horiz-adv-x="637" 
d="M542 -87q-24 0 -54.5 24.5t-65 64.5t-67.5 88t-62.5 96.5t-50.5 88.5l-91 -294q-7 -24 -25.5 -34.5t-40.5 -13t-42 -2.5q14 31 28 66.5t31 85.5t41.5 121t59.5 172t85 240q2 7 7 19.5t5 23.5q0 9 -4.5 14t-15.5 5q-24 0 -45 -18.5t-38 -46t-26.5 -56.5t-9.5 -51
q0 -23 10 -46q-43 0 -61.5 18.5t-18.5 46.5q0 34 21 68.5t53.5 63t69 46t67.5 17.5q34 0 44.5 -18.5t10.5 -39.5q0 -11 -2 -21t-5 -19l-74 -240q11 7 25.5 18l43.5 33q56 44 108 92t96 98.5t76 99.5q12 -11 16 -27.5t4 -26.5q0 -31 -25.5 -67.5t-67 -75.5t-90.5 -77t-98 -71
t-88 -58q32 -49 61.5 -93t65.5 -86.5t84.5 -88t116.5 -97.5q-9 -17 -27 -29.5t-35 -12.5z" />
    <glyph glyph-name="L" unicode="L" horiz-adv-x="610" 
d="M437 -87q-37 0 -83 15t-94.5 36t-94.5 40q-25 -27 -54 -42t-62 -15q-35 0 -60.5 15.5t-39 37.5t-13.5 40q0 20 18 35t64 15q27 0 59.5 -5.5t66.5 -14.5q23 40 42.5 94t38.5 113.5t38 116.5q-50 17 -77 47.5t-27 61.5q0 20 10 39.5t29 33t45 13.5q-13 -16 -16.5 -36
t-3.5 -32q0 -33 15 -56t37 -36q19 57 40.5 109.5t48 93t59 64.5t73.5 24q23 0 48.5 -9.5t44 -32.5t18.5 -66q0 -34 -14.5 -73t-45.5 -74.5t-79.5 -59t-117.5 -25.5h-4.5h-4.5q-19 -58 -40 -117t-45 -113t-52 -96q39 -11 86.5 -25t95 -23.5t83.5 -9.5q24 0 44.5 5.5
t43.5 16.5q-20 -56 -49.5 -80.5t-70.5 -24.5zM39 -16q26 0 42 11.5t32 28.5q-31 11 -58 18.5t-47 7.5q-19 0 -27.5 -7t-8.5 -17q0 -16 20 -29t47 -13zM352 413q44 3 78 28t58 60t36.5 71.5t12.5 63.5q0 26 -10 35.5t-23 9.5q-29 0 -55 -37t-49.5 -97.5t-47.5 -133.5z" />
    <glyph glyph-name="M" unicode="M" horiz-adv-x="806" 
d="M-5 -87q5 15 29.5 68.5t66 143t98.5 212.5t127 277q4 8 6.5 17t2.5 16q0 10 -6 16t-23 6q-42 0 -68.5 -25.5t-39 -62.5t-12.5 -73q0 -9 1 -21t3 -27q-24 0 -39.5 14.5t-23.5 36t-8 40.5q0 32 18.5 62t48.5 54.5t66.5 38.5t72.5 14q37 0 63 -20.5t40 -74t14 -153.5
q0 -65 -4.5 -131.5t-9.5 -124.5t-5 -99q20 59 49.5 125.5t63.5 132t67 123.5t59.5 101.5t40.5 64.5q14 22 25 33t30 11q14 0 44 -11q-9 -19 -21 -60.5t-26 -96.5q-15 -60 -30 -131.5t-27 -144.5t-19.5 -138.5t-7.5 -115.5q0 -26 2.5 -41t7 -26.5t10.5 -29.5q-43 0 -65.5 13
t-30 41.5t-7.5 75.5q0 111 25.5 233.5t59.5 252.5q-28 -40 -58 -95t-59 -116t-55 -120.5t-46 -110t-31 -84.5q-9 -3 -12.5 -4t-8.5 -1q-35 0 -44.5 42.5t-9.5 116.5q0 39 1 83.5t3 91t3 92.5t1 88q0 15 -0.5 30t-0.5 29q-76 -177 -128.5 -302.5t-89.5 -204t-68 -115
t-65 -36.5z" />
    <glyph glyph-name="N" unicode="N" horiz-adv-x="674" 
d="M56 -87q15 50 34 109.5t44 140t58 191.5t76 262q1 3 4 15t3 24q0 8 -2.5 11t-10.5 3q-21 0 -40.5 -17t-35 -42.5t-24 -53t-8.5 -49.5q0 -24 10 -47q-44 0 -62 18.5t-18 46.5q0 34 21 68.5t53.5 63t68 46t64.5 17.5q35 0 57.5 -25.5t37 -69.5t24.5 -100t19 -118
q12 -80 19 -127.5t11.5 -75.5t8 -47t7.5 -43q12 48 24.5 101.5t25.5 108.5t25.5 107.5t25.5 98.5t25.5 81.5t24.5 56.5q9 16 28.5 34.5t52.5 18.5q-17 -45 -38.5 -111.5t-43.5 -144t-42.5 -158t-36.5 -156t-25.5 -137.5t-9.5 -101q-37 0 -60.5 17.5t-35.5 68.5q-4 17 -12 57
t-18 94.5t-21 114.5t-21 117.5t-18 103t-13 69.5q-45 -164 -77 -277.5t-56 -185t-43 -110.5t-38 -54t-42 -15z" />
    <glyph glyph-name="O" unicode="O" horiz-adv-x="655" 
d="M242 -87q-58 0 -106 30.5t-76 86.5t-28 134q0 77 24 155.5t66 150t98 128t119.5 89t130.5 32.5q10 0 29.5 -4t38.5 -24q-6 1 -13.5 1.5t-15.5 0.5q-52 0 -105 -32.5t-101 -87.5t-85.5 -124.5t-59.5 -144.5t-22 -146q0 -52 14 -97t45 -72.5t82 -27.5q55 0 103 33t87 88.5
t67 124t43 141t15 138.5q0 29 -4 62.5t-13.5 57.5t-27.5 24q-17 0 -37 -21.5t-39 -54.5t-33.5 -69.5t-20.5 -65.5q-34 7 -48.5 22t-14.5 36q0 27 19 60t49.5 63.5t64 50.5t62.5 20q30 0 48.5 -21.5t28.5 -55.5t14 -72.5t4 -71.5q0 -102 -25 -186.5t-67.5 -149.5t-95 -110
t-108 -68t-106.5 -23z" />
    <glyph glyph-name="P" unicode="P" horiz-adv-x="559" 
d="M117 -87q-30 0 -56.5 16t-26.5 41q0 13 4.5 28t8.5 28q31 95 58 177.5t54.5 159t58 153.5t68.5 161q-38 -8 -65 -20.5t-44 -22t-25 -9.5q-5 0 -14.5 7t-16.5 16t-7 16q28 12 65.5 25t81.5 22t88 9q47 0 96 -12.5t90.5 -37t67 -61t25.5 -85.5q0 -53 -24 -91t-63.5 -64
t-85.5 -42t-91.5 -24t-81.5 -11t-54 -3h-6q-28 -99 -55 -197.5t-50 -178.5zM231 320q56 4 112 19t101.5 41.5t73 66.5t27.5 93q0 50 -26.5 81t-68 47t-87.5 17q-36 -70 -69 -165.5t-63 -199.5z" />
    <glyph glyph-name="Q" unicode="Q" horiz-adv-x="728" 
d="M559 -119q-48 0 -89.5 24.5t-79.5 55.5q-25 -12 -51.5 -18.5t-55.5 -6.5q-39 0 -62.5 10.5t-35.5 25.5t-16.5 30t-4.5 24q0 20 18 41t64 21q42 0 82 -18.5t83 -43.5q43 39 76.5 97.5t56.5 125t35 131t12 116.5q0 81 -32 132t-105 51q-58 0 -108 -32.5t-89.5 -87
t-68 -122.5t-43.5 -140.5t-15 -139.5q0 -20 2.5 -45.5t9.5 -54.5q-38 0 -59.5 20.5t-30 53.5t-8.5 70q0 74 20 148.5t56.5 141t87.5 118.5t113.5 81.5t132.5 29.5q103 0 163 -66t60 -182q0 -61 -16.5 -127t-46.5 -130t-70.5 -119t-88.5 -94q33 -16 69 -27.5t74 -11.5
q26 0 38 5t33 10q-12 -42 -31.5 -63t-40 -27.5t-38.5 -6.5zM265 -34q27 0 50 8.5t39 15.5q-29 24 -58.5 42t-60.5 18q-20 0 -30.5 -8.5t-10.5 -22.5q0 -10 6.5 -22.5t22 -21.5t42.5 -9z" />
    <glyph glyph-name="R" unicode="R" horiz-adv-x="616" 
d="M505 -121q-24 0 -55 26t-64.5 68t-66 92.5t-61.5 101.5t-49 92q-27 -92 -51.5 -181.5t-46.5 -165.5q-29 0 -54.5 16t-25.5 42q0 11 5 26t9 29q29 87 52 155.5t43.5 126t42 114t47.5 118.5t60 140q-39 -8 -68.5 -21t-48 -23t-25.5 -10q-5 0 -15 6.5t-17.5 16t-7.5 16.5
q28 11 65.5 24t82.5 22.5t93 9.5q45 0 93 -10.5t89 -33.5t66 -60t25 -89q0 -47 -21 -81.5t-56 -58.5t-77 -39t-85 -23.5t-79.5 -11.5t-60.5 -4q32 -51 63 -99t66.5 -95.5t82.5 -95t111 -96.5q-4 -20 -24.5 -32t-36.5 -12zM232 339q56 4 110.5 18t99 39t71 62.5t26.5 88.5
q0 52 -26 81.5t-67 42.5t-86 14q-34 -67 -66 -157.5t-62 -188.5z" />
    <glyph glyph-name="S" unicode="S" horiz-adv-x="567" 
d="M233 -87q-58 0 -110.5 20t-85.5 61t-33 102q0 54 24 84.5t60 42.5t70 12q-32 -34 -48.5 -70t-16.5 -69q0 -34 17.5 -63.5t52.5 -48t87 -18.5q45 0 87.5 15t70 45t27.5 75q0 41 -23.5 70.5t-60.5 53t-78 45t-78 46.5t-60.5 58t-23.5 79q0 41 20.5 87.5t58.5 87.5t92 66.5
t120 25.5q69 0 97 -29t28 -76q0 -37 -13 -79t-31.5 -80t-35.5 -65q-22 5 -33 17.5t-11 33.5t8.5 47t20 54t20 54.5t8.5 46.5q0 18 -10.5 28t-42.5 10q-48 0 -88 -21t-69.5 -53t-45.5 -67.5t-16 -64.5q0 -36 23 -61.5t59.5 -46.5t77 -42t77 -47t59.5 -62t23 -88t-23.5 -92
t-63.5 -67.5t-88.5 -42t-98.5 -14.5z" />
    <glyph glyph-name="T" unicode="T" horiz-adv-x="540" 
d="M233 -87q-55 0 -76 21.5t-22 55.5q0 29 11.5 69.5t23.5 77.5q24 71 50 140t52.5 133t51 122t45.5 107q-68 -1 -117.5 -4t-90.5 -7.5t-85 -12.5q5 42 39.5 64.5t92.5 31.5t133 9q39 0 73.5 -1.5t66 -4.5t61.5 -6q63 -6 100.5 -8t53.5 -2q-30 -28 -75.5 -40.5t-95.5 -15.5
t-95 -3q-48 -118 -88 -245t-74 -251q-13 -48 -21.5 -81.5t-12.5 -61t-4 -58.5q0 -5 0.5 -11.5t2.5 -17.5z" />
    <glyph glyph-name="U" unicode="U" horiz-adv-x="750" 
d="M588 -99q-37 0 -63.5 33t-26.5 79q0 8 0.5 22t1.5 30q-36 -67 -88 -110t-125 -43q-67 0 -104.5 40t-37.5 112q0 44 12 95.5t30 106.5t36 110.5t30 109.5t12 102q0 90 -54 90q-27 0 -46 -17t-31.5 -42.5t-18.5 -51.5t-6 -44q0 -15 4 -32.5t9 -31.5q-48 0 -68.5 22
t-20.5 55q0 31 15 63t42.5 59.5t64.5 44t80 16.5q61 0 88.5 -35t27.5 -94q0 -37 -9 -82t-23 -93t-28 -93q-25 -81 -41 -140.5t-16 -106.5q0 -46 19 -77.5t64 -31.5q41 0 75 25.5t59.5 66t43.5 85.5t27 84q14 59 31 126t35.5 132t37.5 118t37.5 84.5t36.5 31.5
q10 0 27.5 -10.5t36.5 -28.5q-9 -7 -26 -42t-38 -90t-42.5 -121t-39 -135.5t-28.5 -133.5t-11 -114q0 -62 21 -82t73 -20q-11 -19 -37 -30t-48 -11z" />
    <glyph glyph-name="V" unicode="V" horiz-adv-x="669" 
d="M245 -87q-16 0 -38.5 6.5t-40 26t-17.5 56.5q0 31 12 75t30 98t36 116.5t30 130t12 137.5q0 35 -5 62t-18 42t-38 15q-26 0 -44 -15t-29.5 -39t-17 -50t-5.5 -49q0 -17 3.5 -33t11.5 -32q-49 0 -71 23t-22 57q0 30 15 62t41.5 58.5t62 43t75.5 16.5q68 0 103 -49.5
t35 -135.5q0 -55 -12.5 -115t-30.5 -120.5t-36.5 -117.5t-31 -105.5t-12.5 -84.5q0 -16 4.5 -25t19.5 -9q29 0 65.5 27t75.5 73.5t76 105.5t67 123t47.5 127t17.5 116t-19 81t-48 38q14 30 34.5 43.5t36.5 13.5q27 0 51 -34t24 -96q0 -54 -20.5 -123.5t-56.5 -144
t-81.5 -145t-96 -127t-100.5 -90t-95 -33.5z" />
    <glyph glyph-name="W" unicode="W" horiz-adv-x="953" 
d="M246 -87q-10 0 -26 3t-32.5 11.5t-27.5 26.5t-11 48q0 25 10 65.5t34 118.5q18 59 35.5 116.5t29 119.5t11.5 132q0 41 -5 69t-18.5 42.5t-37.5 14.5t-42 -13t-30 -34.5t-18 -47.5t-6 -52q0 -44 15 -73q-49 0 -71 23t-22 57q0 30 15 62t41.5 58.5t61.5 43t75 16.5
q68 0 103.5 -50t35.5 -142q0 -69 -18.5 -143.5t-46.5 -162.5q-10 -32 -23.5 -70.5t-24 -79t-10.5 -80.5q0 -19 4.5 -26.5t17.5 -7.5q27 0 57.5 23t61.5 62t59.5 87t52.5 98.5t40 96t21 79.5q38 0 59 -21t21 -40q0 -10 -8.5 -34t-28.5 -71q-16 -38 -33 -80.5t-28.5 -84
t-11.5 -77.5q0 -20 5.5 -29t20.5 -9q28 0 64.5 27.5t75.5 75t76 107t67 123.5t47.5 126t17.5 113q0 55 -19.5 78t-48.5 33q18 29 38.5 42.5t36.5 13.5q23 0 47.5 -29.5t24.5 -92.5q0 -53 -20.5 -122t-56 -143.5t-81 -145t-97 -127.5t-103.5 -90.5t-99 -33.5
q-26 0 -46.5 10.5t-32 30t-11.5 45.5q0 12 3 25t7 26q-49 -62 -98.5 -99.5t-98.5 -37.5z" />
    <glyph glyph-name="X" unicode="X" horiz-adv-x="706" 
d="M45 -112q3 30 9.5 48t17 31.5t25.5 29.5q33 35 59 63t51 55.5t53.5 61.5t66.5 80q-4 34 -7 65.5t-5 60t-3 54t-2 47.5q-3 70 -6.5 114t-14.5 65t-38 21q-25 0 -43 -14.5t-30 -38t-18 -49.5t-6 -50q0 -35 13 -64q-49 0 -69 22t-20 54t16 63.5t43 57.5t62 42t74 16
q48 0 76 -25t41.5 -65.5t17.5 -88t4.5 -93.5t2.5 -81q77 104 131.5 194.5t90.5 163.5q8 -5 18 -21.5t10 -31.5q0 -20 -19.5 -58.5t-53.5 -90t-79 -111t-96 -121.5q3 -63 10 -121t18.5 -103.5t28.5 -72t39 -26.5q32 0 75 55.5t101 155.5l22 -18q-41 -81 -75.5 -135
t-69.5 -81.5t-78 -27.5t-71 25t-45 65.5t-25.5 88t-13.5 92.5q-58 -69 -115 -130.5t-102.5 -107t-70.5 -65.5z" />
    <glyph glyph-name="Y" unicode="Y" horiz-adv-x="706" 
d="M286 -187q-61 0 -102.5 25.5t-41.5 73.5q0 31 19.5 56t56.5 33q-6 -27 -8.5 -41t-2.5 -27q0 -40 22 -62.5t69 -22.5q34 0 60.5 11.5t47 32t36 47.5t27 58.5t19.5 64.5q16 64 25 125.5t21 99.5q-39 -63 -90 -102.5t-119 -39.5q-67 0 -95 37t-28 91q0 37 9.5 80.5t22.5 89
t22.5 88t9.5 75.5q0 30 -11.5 51t-42.5 21q-27 0 -46.5 -15.5t-32 -40.5t-18.5 -53t-6 -54q0 -16 2.5 -27t9.5 -29q-49 0 -69 22.5t-20 54.5q0 30 15 62.5t42.5 60t64.5 44.5t80 17q40 0 66 -15t38.5 -40t12.5 -55q0 -22 -7 -53t-21 -82t-25 -96.5t-11 -85.5q0 -42 16 -68
t55 -26q34 0 64.5 19.5t57.5 53t49 76.5t38 91q13 38 26.5 85.5t29 92.5t33 74t37.5 29q11 0 30.5 -10t37.5 -28q-22 -33 -37.5 -63t-29 -65t-27.5 -82.5t-31 -115t-40 -163.5q-13 -52 -29.5 -105.5t-40 -102.5t-56.5 -88t-78 -61.5t-106 -22.5z" />
    <glyph glyph-name="Z" unicode="Z" horiz-adv-x="680" 
d="M490 -87q-42 0 -88.5 15t-91 35.5t-81.5 36.5q-35 -25 -68 -39.5t-65 -14.5q-33 0 -56 13.5t-35.5 34t-12.5 39.5q0 22 18.5 39.5t66.5 17.5q30 0 66 -7t75 -18q47 47 95.5 113t92.5 136q-29 -1 -59 -4t-76 -9l-30 -4q2 34 24 52.5t57.5 25.5t76.5 7q15 0 25 -0.5
t21 -1.5q38 64 67 121t45 99q-21 6 -38.5 12t-41.5 15q-80 29 -126.5 40t-75.5 11q-31 0 -56 -12.5t-39.5 -44.5t-14.5 -91q0 7 1 1t3.5 -15.5t4.5 -14.5q-39 7 -56.5 27t-17.5 52q0 68 52.5 104t152.5 36q55 0 103.5 -9.5t92 -22t84.5 -22t82 -9.5q10 0 25 1t25 3
q-22 -22 -37 -33t-26 -16q-21 -49 -52.5 -111t-71.5 -128q38 -3 62 -5.5t52 -2.5q-16 -22 -32.5 -32t-42.5 -13t-73 -4q-48 -76 -102.5 -146.5t-108.5 -122.5q65 -19 129 -35t110 -16q25 0 46 5.5t44 16.5q-22 -59 -51 -82t-73 -23zM88 -21q18 0 38 12.5t45 31.5
q-31 12 -58 21t-48 9t-30.5 -7.5t-9.5 -18.5q0 -16 18 -32t45 -16z" />
    <glyph glyph-name="bracketleft" unicode="[" horiz-adv-x="438" 
d="M233 -87q-33 0 -69.5 4t-67.5 9.5t-48 8.5q3 5 6 12.5t7.5 25t11.5 52.5t18 95t27.5 152t39.5 224q15 86 38.5 130.5t50 61t48.5 16.5q14 0 34 -1.5t42 -1.5q27 0 55.5 4.5t55.5 19.5q-1 -44 -17.5 -65t-42 -27t-55.5 -6q-25 0 -53 5.5t-55 10.5q-14 -41 -27.5 -98.5
t-25.5 -123t-23.5 -132t-22 -127t-19 -107.5t-16.5 -73q54 0 90 1t62 3t47.5 6t45.5 11q0 -46 -32.5 -68t-104.5 -22z" />
    <glyph glyph-name="backslash" unicode="\" horiz-adv-x="604" 
d="M488 -167q-49 9 -81 55.5t-61 139.5q-11 35 -22 77t-23.5 92t-26 107t-29 123t-33.5 140t-39 157q27 0 51 -17t31 -36q15 -39 32.5 -100.5t36.5 -135.5t37.5 -152.5t37 -153t35 -137t30.5 -105t24 -54.5z" />
    <glyph glyph-name="bracketright" unicode="]" horiz-adv-x="457" 
d="M14 -88q3 36 20.5 54.5t44 25t53.5 6.5q26 0 59.5 -3t63.5 -5q17 47 33 117t31.5 149.5t29.5 157.5t26 143.5t21 105.5h-67q-64 -1 -111.5 -6t-92.5 -17q0 52 35.5 67t95.5 15q47 0 93.5 -5.5t93.5 -15.5q-1 -18 -6 -55.5t-12 -87.5t-15.5 -106.5t-17.5 -113.5t-18 -109
t-17 -93q-4 -24 -12.5 -58t-23.5 -68t-39 -56.5t-61 -22.5q-57 0 -110 -2.5t-97 -16.5z" />
    <glyph glyph-name="asciicircum" unicode="^" horiz-adv-x="210" 
d="M185 406q-16 27 -33 45t-38 37q-27 -9 -50.5 -20t-49.5 -28q-7 5 -10 12t-3 12q0 15 13.5 30t33 27.5t38 20.5t29.5 8q12 0 28 -10.5t31.5 -27t25.5 -35t10 -33.5q0 -10 -5.5 -20.5t-19.5 -17.5z" />
    <glyph glyph-name="underscore" unicode="_" horiz-adv-x="887" 
d="M-2 -73q6 39 46.5 59.5t110 27.5t161.5 7q69 0 128.5 -2.5t112.5 -6t102 -6.5t97 -4q-52 -34 -96 -48t-74 -14q-69 0 -135.5 2.5t-119.5 5t-84 2.5q-49 0 -82.5 -1t-60 -4t-51 -7.5t-55.5 -10.5z" />
    <glyph glyph-name="grave" unicode="`" horiz-adv-x="138" 
d="M113 403q-23 28 -49.5 53.5t-67.5 56.5q2 20 11.5 29.5t20.5 9.5q15 0 34 -13.5t36.5 -33.5t28.5 -38.5t11 -27.5q0 -7 -6.5 -19t-18.5 -17z" />
    <glyph glyph-name="a" unicode="a" horiz-adv-x="444" 
d="M56 -47q-33 0 -57.5 22t-24.5 66q0 35 16 76t44 81t64 72.5t77 52.5t82 20q43 0 73 -22t30 -58q0 -27 -19 -39t-45 -7q2 9 3.5 18t1.5 19q0 20 -8 36t-34 16q-28 0 -57 -19t-55.5 -49.5t-47.5 -67t-33 -71.5t-12 -63q0 -32 23 -32t51 22.5t56.5 56.5t54.5 69.5t45 60.5
q3 5 8 5q4 -1 15.5 -4.5t21.5 -10.5t10 -18q0 -10 -8.5 -25.5t-20 -34t-20 -37t-8.5 -35.5q0 -13 7 -24.5t23 -11.5q24 0 67.5 35.5t88.5 120.5l19 -19q-24 -54 -57.5 -95.5t-70.5 -65t-75 -23.5q-41 0 -61 26t-22 56v3v2q-40 -48 -73.5 -76t-71.5 -28z" />
    <glyph glyph-name="b" unicode="b" horiz-adv-x="409" 
d="M105 -73q-57 0 -86.5 35.5t-29.5 97.5q0 49 17 116t45 140.5t62.5 144t70.5 128t68 91.5t55 34q20 0 30 -23t11 -46q0 -28 -12 -68t-34 -85t-51 -89t-63.5 -80t-71.5 -57q-7 -13 -17.5 -45t-19 -73t-8.5 -82q0 -40 11.5 -68.5t40.5 -28.5q26 0 56 24t49 58q-37 20 -56 56
t-19 76q0 49 26.5 79t64.5 30q32 0 53 -24.5t21 -75.5q0 -29 -7.5 -61.5t-22.5 -64.5q5 0 8.5 -0.5t9.5 -0.5q35 0 60 19t42 45t27 47l15 -21q-25 -59 -61.5 -90t-95.5 -31h-10.5t-10.5 1q-28 -45 -69.5 -76.5t-97.5 -31.5zM245 84q9 20 13.5 40.5t4.5 44.5q0 36 -8.5 53
t-20.5 17q-13 0 -22.5 -18t-9.5 -43q0 -21 9 -49t34 -45zM135 329q25 23 48.5 53.5t44 64t36 66t25.5 59t12 42.5v3.5v2.5q-9 -3 -29.5 -29t-46 -67.5t-49.5 -92t-41 -102.5z" />
    <glyph glyph-name="c" unicode="c" horiz-adv-x="333" 
d="M113 -56q-52 0 -85.5 32.5t-33.5 99.5q0 49 19 96t51 84.5t71.5 59.5t80.5 22q42 0 60.5 -21t18.5 -49t-13.5 -54.5t-36.5 -26.5q-19 0 -31 19q10 7 21 26t11 49q0 8 -4 12.5t-15 4.5q-25 0 -52.5 -22.5t-51 -58t-38 -75t-14.5 -72.5q0 -28 14.5 -51.5t56.5 -23.5
q38 0 79 22t77 61.5t58 94.5l20 -18q-24 -61 -66.5 -108.5t-94 -75t-102.5 -27.5z" />
    <glyph glyph-name="d" unicode="d" horiz-adv-x="491" 
d="M69 -30q-19 0 -38.5 9.5t-33 29.5t-13.5 51q0 33 16 74t43.5 82t64 75t77.5 55t83 21q23 0 36 -7.5t13 -24.5q0 -5 -2 -11.5t-10 -11.5q-4 6 -14 8.5t-21 2.5q-33 0 -63 -18.5t-55 -47.5t-43.5 -63t-28.5 -65.5t-10 -54.5q0 -19 8 -30.5t24 -11.5q27 0 64.5 31.5t77 91
t71.5 142.5q22 57 46 116.5t48 114.5t47.5 98t45 68.5t39.5 25.5q11 0 19.5 -8.5t8.5 -21.5q0 -17 -16.5 -54.5t-42 -89.5t-55 -112.5t-55 -124t-42 -125t-16.5 -115.5q0 -24 4.5 -32.5t15.5 -8.5q22 0 49 17t55 50.5t51 80.5l19 -16q-22 -55 -56 -97t-73 -65.5t-77 -23.5
q-41 0 -57 26t-16 61q0 16 2.5 32.5t5.5 32.5q-31 -45 -65.5 -80.5t-67.5 -55.5t-63 -20z" />
    <glyph glyph-name="e" unicode="e" horiz-adv-x="341" 
d="M116 -44q-64 0 -98.5 34.5t-34.5 86.5q0 44 22.5 93.5t60.5 93t84 70.5t92 27q26 0 49.5 -13.5t23.5 -53.5q0 -38 -22 -71t-59 -59t-81.5 -42.5t-89.5 -21.5q-1 -4 -1.5 -8.5t-0.5 -14.5q0 -5 1.5 -17.5t8.5 -26.5t23 -24t44 -10q42 0 84.5 23.5t80 62.5t62.5 87l20 -16
q-27 -60 -69.5 -105t-94 -70t-105.5 -25zM74 137q26 3 58 18t61.5 38t48.5 50.5t19 55.5q0 11 -4 15t-13 4q-23 0 -48 -16.5t-49 -43t-43 -58.5t-30 -63z" />
    <glyph glyph-name="f" unicode="f" horiz-adv-x="330" 
d="M-1 -280q-11 0 -26.5 7t-27 27.5t-11.5 61.5q0 43 14.5 112.5t40 154t60 173.5t74 171.5t82 148.5t84.5 105t81 39q26 0 34 -15.5t8 -35.5q0 -43 -23.5 -94t-62.5 -102.5t-87.5 -97.5t-99.5 -79l-8 -20l-8 -20q11 -4 17.5 -14t7.5 -21q8 -43 16 -76.5t24.5 -52.5
t47.5 -19q35 0 62 26t55 73l22 -16q-32 -64 -72 -93.5t-72 -29.5q-17 0 -35.5 7t-35.5 20q-1 -62 -14.5 -122.5t-36.5 -109.5t-51.5 -78.5t-58.5 -29.5zM27 -218q11 0 23.5 19t24.5 50t22 68.5t16 74t6 66.5q0 29 -6.5 51.5t-22.5 50.5q-23 -69 -41 -133t-28 -116.5
t-10 -87.5q0 -43 16 -43zM168 366q61 57 104 111t65.5 95.5t22.5 58.5q0 8 -8 8q-24 0 -55 -36.5t-64 -98.5t-65 -138z" />
    <glyph glyph-name="g" unicode="g" horiz-adv-x="403" 
d="M50 -280q-25 0 -46.5 15t-21.5 49q0 32 18.5 57.5t49 47t65.5 39.5t68 34q11 27 21 58t19 67q-35 -44 -73.5 -73t-78.5 -29t-63.5 28t-23.5 74q0 53 26.5 99.5t68.5 83t90 57t92 20.5q32 0 48 -11.5t16 -26.5q0 -12 -7 -19t-9 -8q-10 11 -20.5 14.5t-24.5 3.5
q-39 0 -75 -22t-63.5 -56.5t-43.5 -71.5t-16 -67q0 -20 9 -30.5t22 -10.5q28 0 68 36.5t77 88.5q2 8 3.5 14.5t2.5 12.5q10 40 24 59t39 19q5 0 12.5 -1t16.5 -3q0 -18 -10 -59t-27 -95.5t-38 -111.5q31 13 63 36.5t59 57t41 74.5l18 -18q-16 -46 -49.5 -84t-72.5 -65.5
t-72 -42.5q-27 -66 -58.5 -120.5t-67 -87t-76.5 -32.5zM46 -234q18 0 49.5 34t68.5 115q-37 -18 -68 -37t-50 -40t-19 -44q0 -13 5.5 -20.5t13.5 -7.5z" />
    <glyph glyph-name="h" unicode="h" horiz-adv-x="494" 
d="M46 -38q-22 0 -31.5 34t-9.5 79q0 46 15.5 111t42 137t59 141t67 125.5t66 90.5t55.5 34q21 0 32 -23t11 -48q0 -27 -12.5 -66.5t-34.5 -84.5t-51.5 -88.5t-64 -79.5t-71.5 -58q-13 -34 -20.5 -63.5t-10.5 -55.5t-3 -51q0 -5 0.5 -10.5t0.5 -10.5q4 6 13 31t24.5 58.5
t38.5 66t54 54t71 21.5q34 0 53 -15.5t27 -38t8 -45.5q0 -32 -10.5 -60t-21 -52.5t-10.5 -46.5q0 -18 8 -25t19 -7q22 0 51.5 22t59 58.5t50.5 80.5l16 -17q-23 -50 -54 -92t-68 -67t-80 -25q-38 0 -58 20t-20 50q0 21 7.5 46.5t14.5 51.5t7 47q0 24 -10.5 33t-25.5 9
q-25 0 -45 -19.5t-36 -50.5t-30 -65.5t-28 -65.5t-29.5 -50.5t-35.5 -19.5zM140 330q26 23 50 55t44.5 66.5t36 67t24.5 58.5t10 40v1.5v1.5q-6 0 -25.5 -24.5t-45 -66t-51 -93.5t-43.5 -106z" />
    <glyph glyph-name="i" unicode="i" horiz-adv-x="244" 
d="M80 -30q-44 0 -66 26t-22 63q0 23 8 58t22.5 73.5t33.5 72.5t41 55.5t44 21.5q12 0 21 -7t9 -22q0 -13 -15.5 -39t-36 -60t-36 -70.5t-15.5 -69.5q0 -32 11.5 -42.5t33.5 -10.5q34 0 74 34t83 119l15 -16q-35 -88 -89 -137t-116 -49zM198 421q-19 0 -34.5 9.5t-15.5 29.5
q0 24 26 41t54 17q18 0 30.5 -8t12.5 -29t-23 -40.5t-50 -19.5z" />
    <glyph glyph-name="j" unicode="j" horiz-adv-x="227" 
d="M-134 -280q-29 0 -46 16.5t-17 42.5q0 39 36 80t92 75q17 9 34 17.5t35 15.5q17 41 31.5 92t25.5 111q-8 -14 -17.5 -28t-17.5 -29l-17 27q18 34 32 70.5t27 68t27 51.5t33 20q14 0 22.5 -10.5t8.5 -26.5q0 -11 -5 -40.5t-14 -72.5t-22.5 -93t-30.5 -101q29 16 56.5 35
t55 48.5t55.5 76.5l18 -12q-31 -64 -66 -99t-69.5 -54.5t-65.5 -39.5q-22 -60 -52.5 -115.5t-68 -90.5t-80.5 -35zM-145 -232q18 0 52 37t70 110q-67 -34 -100.5 -68.5t-33.5 -61.5q0 -10 3.5 -13.5t8.5 -3.5zM139 424q-19 0 -34.5 9.5t-15.5 28.5q0 17 13 30.5t32 21.5
t37 8q17 0 29 -8.5t12 -26.5q0 -25 -22 -44t-51 -19z" />
    <glyph glyph-name="k" unicode="k" horiz-adv-x="462" 
d="M317 -38q-31 0 -54 20t-37 50t-21 61.5t-7 54.5q14 3 35 9t43 16.5t36.5 26t14.5 37.5q0 18 -11.5 29t-32.5 11q-28 0 -53 -18.5t-46.5 -48.5t-39 -65t-31 -68t-22.5 -57q-11 -30 -21 -40.5t-29 -10.5q-7 0 -16.5 4t-16 20t-6.5 51q0 61 17 134t45.5 148.5t62.5 144.5
t69 124t65.5 87t50.5 32q17 0 28.5 -20.5t11.5 -52.5q0 -34 -15 -75.5t-42.5 -84t-65.5 -80.5t-84 -65q-28 -65 -43 -128.5t-19 -112.5q18 41 41 84t51 80.5t60.5 60.5t69.5 23q40 0 70 -28t30 -70q0 -30 -16 -52t-39.5 -36.5t-47.5 -21.5t-41 -8q3 -13 8.5 -33t14.5 -39
t23 -32t33 -13q25 0 51.5 23t52 61t45.5 84l14 -17q-17 -50 -46.5 -96t-65.5 -74.5t-74 -28.5zM174 404q27 24 57 59.5t51.5 76t22.5 77.5v1.5v1.5q-10 -4 -31.5 -34.5t-47.5 -77.5t-52 -104z" />
    <glyph glyph-name="l" unicode="l" horiz-adv-x="245" 
d="M86 -30q-47 0 -65.5 31.5t-18.5 74.5q0 49 18 115t47.5 138.5t65 142t71.5 125.5t66.5 89.5t49.5 33.5q13 0 22 -13.5t14.5 -32t5.5 -34.5q0 -27 -13.5 -70.5t-38 -95.5t-58 -106.5t-74 -103.5t-86.5 -85q-4 -25 -7.5 -49.5t-3.5 -44.5q0 -36 12 -52.5t31 -16.5
q25 0 51.5 23.5t51 60t42.5 75.5l24 -13q-43 -89 -96 -140.5t-111 -51.5zM110 241q34 37 64.5 80.5t56 88.5t44.5 87t29.5 75.5t11.5 53.5v1.5v1.5q-8 0 -25.5 -22.5t-41.5 -61.5t-49.5 -89t-49 -105.5t-40.5 -109.5z" />
    <glyph glyph-name="m" unicode="m" horiz-adv-x="660" 
d="M523 -31q-39 0 -58 23t-19 55q0 23 7 46t14 45.5t7 40.5q0 17 -6.5 23.5t-16.5 6.5q-23 0 -53.5 -35t-75.5 -102q-16 -24 -30 -50.5t-25 -44.5q-9 0 -23.5 3t-25.5 8.5t-11 14.5t10 35t23 60.5t23 68t10 56.5q0 14 -5 22t-16 8q-21 0 -50.5 -25t-62 -65.5t-61 -90
t-46.5 -99.5q-11 0 -27 4.5t-28 11t-12 11.5q0 1 7 28.5t17 68.5t21 84t19 75q3 11 22 19.5t33 8.5t24 -9t10 -24q0 -10 -4 -29t-10 -43q21 28 44.5 55.5t49 49.5t51 35t50.5 13q37 0 50 -26.5t13 -57.5q0 -13 -2 -25.5t-5.5 -25t-9.5 -29.5q19 28 41.5 51.5t48.5 37.5
t55 14q39 0 54 -23.5t15 -51.5q0 -26 -8.5 -54.5t-17 -54t-8.5 -43.5q0 -10 5 -18.5t20 -8.5q27 0 52 25t46.5 61.5t36.5 69.5l17 -21q-16 -41 -41.5 -83.5t-59.5 -71t-78 -28.5z" />
    <glyph glyph-name="n" unicode="n" horiz-adv-x="473" 
d="M337 -20q-39 0 -59.5 19.5t-20.5 49.5q0 20 7 42.5t14 45.5t7 44q0 22 -10.5 30.5t-24.5 8.5q-30 0 -61.5 -24.5t-61 -61.5t-55.5 -77t-45 -72q-19 0 -36 6.5t-29 22.5q1 5 11.5 30.5t23.5 61t23 74.5t10 71q7 8 21.5 16t30.5 8q35 0 35 -30q0 -12 -4.5 -35.5
t-12.5 -53.5q26 35 57 66t64.5 50.5t67.5 19.5q43 0 63.5 -29t20.5 -64q0 -30 -10 -56t-19.5 -49t-9.5 -45q0 -16 7.5 -22.5t16.5 -6.5q24 0 50 23t49.5 58.5t41.5 71.5l17 -14q-21 -49 -47.5 -89.5t-59 -65t-72.5 -24.5z" />
    <glyph glyph-name="o" unicode="o" horiz-adv-x="372" 
d="M66 -32q-45 0 -61.5 29.5t-16.5 64.5q0 32 10 65.5t27.5 62.5t39 46.5t43.5 17.5q7 0 16.5 -2.5t13.5 -7.5q-12 -15 -24.5 -37t-23 -46.5t-16.5 -49.5t-6 -46q0 -20 7.5 -33t26.5 -13t45.5 21.5t50.5 49.5q-32 29 -46 63.5t-14 83.5q0 21 10.5 48t34 47t63.5 20
q43 0 60.5 -24t17.5 -57q0 -37 -19.5 -83t-46.5 -87q12 -6 28 -6q15 0 36 7t41 23.5t32 44.5l18 -13q-22 -51 -58.5 -74.5t-71.5 -23.5q-13 0 -26 2.5t-24 6.5q-34 -40 -78 -70t-89 -30zM224 122q24 35 41 75t17 74q0 23 -7 33.5t-21 10.5q-19 0 -39 -27t-20 -68
q0 -21 7.5 -51t21.5 -47z" />
    <glyph glyph-name="p" unicode="p" horiz-adv-x="413" 
d="M-56 -280q-8 0 -17 4.5t-15.5 10.5t-7.5 10q25 73 42.5 126.5t29.5 101t21.5 99t19 118t21.5 160.5q2 12 5 17.5t19 5.5q31 0 45 -16.5t14 -36.5q0 -10 -3.5 -35t-10.5 -59q19 29 43.5 55t54.5 42.5t65 16.5q49 0 81 -33t32 -87q0 -39 -17.5 -82.5t-49.5 -82t-77 -63
t-99 -24.5q-32 0 -51 8t-19 18q0 7 7.5 8.5t16.5 1.5q47 1 85.5 20t66.5 49.5t43 65.5t15 69q0 30 -13.5 52t-42.5 22q-25 0 -50.5 -16t-47.5 -40.5t-39 -51t-26 -46.5q-19 -66 -34.5 -131.5t-29.5 -121.5t-28.5 -95t-31.5 -53q-8 -7 -17 -7z" />
    <glyph glyph-name="q" unicode="q" horiz-adv-x="417" 
d="M216 -280q-16 0 -29.5 16.5t-13.5 62.5q0 31 5.5 78t16 100t23.5 100q-40 -49 -77 -81t-72 -32q-17 0 -36.5 9.5t-33 29.5t-13.5 53q0 35 16.5 76t45 81t65.5 72.5t79 52t85 19.5q38 0 64 -15.5t26 -40.5q0 -8 -3.5 -18.5t-12.5 -15.5t-25 1q0 21 -15 34t-40 13
q-34 0 -64.5 -18.5t-55.5 -47.5t-43.5 -62.5t-28.5 -64.5t-10 -53q0 -18 8.5 -31t24.5 -13q19 0 41.5 19t46.5 49.5t48.5 66.5t48.5 70q9 13 15 20t13 14q5 5 21.5 1t21.5 -9q8 -8 8 -19q0 -21 -16 -46.5t-36.5 -64t-34.5 -97.5q41 5 83.5 38t79.5 102l18 -16
q-37 -74 -84.5 -110t-96.5 -44q8 -24 12.5 -51t4.5 -54q0 -49 -10 -88.5t-28 -62.5t-42 -23zM237 -215q6 0 9.5 17.5t5 44.5t1.5 53q0 17 -0.5 27t-2.5 20q-8 -40 -12.5 -74.5t-4.5 -66.5q0 -13 1 -17t3 -4z" />
    <glyph glyph-name="r" unicode="r" horiz-adv-x="363" 
d="M185 -26q-37 0 -60 19.5t-23 52.5q0 28 14 60t28.5 63t14.5 55q0 23 -15 38.5t-35 25.5q-22 -55 -49.5 -106.5t-44.5 -80.5l-15 29q14 26 37 74t44 107q-10 10 -10 27q0 26 16 49t31 23q12 0 17.5 -13.5t5.5 -18.5t-4.5 -18t-6.5 -19q1 -11 17.5 -21.5t37.5 -24.5t37 -35
t16 -53q0 -29 -13 -59t-26 -56t-13 -45q0 -14 7.5 -18.5t17.5 -4.5q24 0 50 14.5t51 37.5t44 48.5t29 46.5l24 -18q-19 -43 -55 -84.5t-80 -68t-89 -26.5z" />
    <glyph glyph-name="s" unicode="s" horiz-adv-x="351" 
d="M117 -51q-50 0 -80.5 20.5t-43.5 52t-13 64.5q0 29 8 45t20 23.5t22.5 11.5t15.5 9q25 26 51.5 60.5t45.5 76.5v10q0 40 13.5 56.5t31.5 16.5q12 0 17.5 -6t6.5 -14q0 -6 -2.5 -14t-2.5 -22q0 -30 14.5 -68.5t29 -81.5t14.5 -88q0 -12 -1 -22t-3 -19q31 8 61 34.5
t57 78.5l12 -9q-19 -57 -55 -91.5t-84 -42.5q-16 -41 -52.5 -61t-82.5 -20zM110 -7q20 0 37 10t27 29q-41 9 -74 32t-51 47q-14 -3 -14 -27q0 -33 19 -62t56 -29zM182 62q2 7 2.5 16.5t0.5 14.5q-1 45 -12 89t-22 90q-18 -31 -42 -67t-45 -58q16 -27 47 -51t71 -34z" />
    <glyph glyph-name="t" unicode="t" horiz-adv-x="288" 
d="M91 -46q-44 0 -71 26t-27 79q0 41 15.5 102t39.5 126q-7 2 -16.5 3.5t-18.5 5.5v31q16 -2 26.5 -3t21.5 -2q21 53 45.5 102.5t49 88.5t46.5 61.5t39 22.5q10 0 19 -7.5t9 -21.5q0 -20 -20.5 -57t-50.5 -86.5t-58 -105.5h16h15q44 0 79.5 1.5t72.5 5.5v-33q-55 -5 -101 -8
t-88 -4h-6h-6q-21 -49 -36.5 -100.5t-15.5 -100.5q0 -41 13 -58t41 -17q50 0 102.5 45.5t91.5 123.5l14 -10q-26 -59 -64.5 -107t-83.5 -75.5t-93 -27.5z" />
    <glyph glyph-name="u" unicode="u" horiz-adv-x="441" 
d="M76 -30q-34 0 -55.5 31.5t-21.5 72.5q0 28 9 66t23.5 74t30 60t28.5 24q7 0 21.5 -7.5t25.5 -18.5q-11 -16 -26.5 -49t-27.5 -71t-12 -69q0 -4 1.5 -19t7.5 -28t21 -13q17 0 36.5 18.5t40 48t40 63.5t35 66t25.5 54q9 -1 23.5 -5t25.5 -10.5t11 -18.5q0 -3 -9.5 -24.5
t-22 -51.5t-22 -61.5t-9.5 -55.5q0 -14 5.5 -24.5t21.5 -10.5q21 0 50 19t60 55t55 86l15 -12q-22 -54 -57 -97t-75 -67.5t-78 -24.5q-29 0 -43.5 13.5t-19.5 35t-6 43.5v10.5v9.5q-17 -27 -37 -52.5t-42.5 -42.5t-47.5 -17z" />
    <glyph glyph-name="v" unicode="v" horiz-adv-x="410" 
d="M74 -39q-37 0 -51.5 33.5t-14.5 86.5q0 11 1 39.5t3 79.5q1 30 6.5 41t31.5 11q24 0 28.5 -9.5t4.5 -38.5q0 -30 -2.5 -64t-2.5 -66q0 -31 3 -45.5t15 -14.5q18 0 39 19.5t42.5 50t41 66t34.5 68.5q2 68 16 91t36 23q25 0 34 -16t9 -28q0 -15 -8 -27t-16 -33t-8 -64
q0 -14 2.5 -30.5t12 -28t28.5 -11.5q20 0 38.5 16.5t39.5 57.5l11 -9q-23 -55 -51.5 -77t-54.5 -22q-33 0 -53.5 26.5t-31.5 66.5q-24 -45 -54.5 -89t-63.5 -73.5t-65 -29.5z" />
    <glyph glyph-name="w" unicode="w" horiz-adv-x="631" 
d="M291 -38q-34 0 -45.5 29.5t-13.5 70.5q1 12 1.5 33t1.5 35q-21 -38 -46 -75t-53 -61t-59 -24q-34 0 -56 30.5t-22 73.5q0 29 9.5 67t24 74t30 60t27.5 24q7 0 24.5 -8t21.5 -21q-11 -16 -26.5 -49t-27 -70.5t-11.5 -68.5q0 -6 1.5 -20.5t8.5 -26.5t21 -12q22 0 46.5 27
t49.5 68t47 84q9 43 15 62t12.5 24t15.5 5q19 0 29.5 -7.5t10.5 -21.5q0 -1 -2 -8.5t-3 -9.5q-6 -21 -11 -50.5t-8 -63t-3 -67.5q0 -24 3 -37.5t15 -13.5q14 0 32.5 17t39 45t40 61.5t35.5 67.5q0 52 7.5 79t20 37.5t27.5 10.5q25 0 34.5 -16t9.5 -27q0 -10 -5 -18.5
t-8 -15.5q-7 -15 -13.5 -36t-6.5 -53q0 -17 3.5 -34.5t13 -28.5t27.5 -11t36.5 16t40.5 60l19 -15q-22 -52 -50 -71.5t-54 -19.5q-33 0 -56 24t-36 59q-25 -43 -55.5 -85.5t-63.5 -70t-66 -27.5z" />
    <glyph glyph-name="x" unicode="x" horiz-adv-x="430" 
d="M55 -59q-9 0 -13.5 7t-4.5 13q0 14 21 44.5t55 70.5t73 82q-7 49 -15 75t-30 26t-41 -22.5t-37 -55.5t-38 -65l-17 28q14 25 26.5 53.5t28 54.5t38.5 42.5t58 16.5q40 0 60.5 -23t31.5 -62q45 45 82 75.5t51 30.5q6 0 17 -6t16 -20q-13 0 -37.5 -17.5t-56 -47
t-64.5 -66.5q3 -14 5.5 -39t7.5 -51.5t15.5 -44.5t28.5 -18q17 0 37 15t39.5 38.5t36 49t26.5 46.5l16 -15q-17 -45 -46.5 -87t-65.5 -69t-74 -27q-31 0 -49 18.5t-27.5 46.5t-14.5 58q-40 -45 -72.5 -84.5t-49.5 -61.5q-7 -9 -17 -9z" />
    <glyph glyph-name="y" unicode="y" horiz-adv-x="400" 
d="M48 -280q-25 0 -46.5 15.5t-21.5 49.5q0 32 19 57.5t49 47t64.5 39t66.5 32.5q11 29 24.5 73.5t23.5 82.5q-31 -43 -66 -76t-78 -33q-18 0 -38 7.5t-33.5 26t-13.5 49.5q0 26 9.5 63t24 72.5t30.5 59t28 23.5q6 0 17.5 -4.5t22.5 -12t14 -16.5q-9 -12 -20 -34.5t-21 -50
t-16.5 -53.5t-6.5 -45q0 -15 6 -26t23 -11q22 0 45.5 18t46 46t40.5 57q2 7 4 22t7 31q5 17 17.5 31t35.5 14q8 0 15 -1t17 -3q0 -15 -10.5 -58.5t-27.5 -100.5t-38 -114q42 17 87.5 56.5t73.5 112.5l17 -14q-15 -50 -45.5 -87t-68.5 -63t-77 -43q-27 -65 -58.5 -120
t-66.5 -87.5t-75 -32.5zM38 -243q19 0 53 40t69 120q-32 -16 -64.5 -37.5t-54.5 -45.5t-22 -49q0 -10 4.5 -19t14.5 -9z" />
    <glyph glyph-name="z" unicode="z" horiz-adv-x="331" 
d="M8 -280q-35 0 -55.5 13.5t-20.5 44.5q0 34 21.5 61t58 51t81 49t89.5 55q-1 32 -19.5 61t-64.5 62q39 11 66 34.5t41 52t14 53.5q0 18 -9 32.5t-32 14.5q-30 0 -56 -26t-49.5 -67t-45.5 -88l-19 16q22 59 46.5 107.5t58 77.5t80.5 29q41 0 70 -23t29 -67
q0 -31 -15.5 -60.5t-41 -54t-56.5 -40.5q22 -17 38.5 -39t26.5 -43q36 28 65 62t46 78l13 -16q-15 -44 -44.5 -82.5t-69.5 -67.5q2 -7 3 -14.5t1 -18.5q0 -44 -20 -87.5t-55.5 -79.5t-80 -58t-94.5 -22zM-6 -242q18 0 46.5 13.5t58 39t52 61.5t29.5 82q-37 -24 -75 -45
t-69 -41.5t-50 -40.5t-19 -42q0 -14 8 -20.5t19 -6.5z" />
    <glyph glyph-name="braceleft" unicode="{" horiz-adv-x="304" 
d="M140 -87q-44 0 -61 22t-17 50q0 27 11 57.5t25.5 63.5t25.5 66t11 65q0 23 -10 49.5t-42 50.5q42 4 62.5 31t28 68t11.5 86q3 37 7 72t14 63.5t30 45.5t55 17q12 0 28 -5.5t25.5 -20t0.5 -42.5q-18 10 -26 12.5t-13 2.5q-19 0 -29.5 -22.5t-16 -58t-10.5 -75.5
q-5 -45 -11.5 -85t-18.5 -68t-36 -37q11 -13 16 -28t5 -40q0 -42 -11 -80t-25.5 -72t-25.5 -64.5t-11 -59.5q0 -13 9 -19.5t21 -6.5q17 0 32 10q-2 -31 -19 -39.5t-35 -8.5z" />
    <glyph glyph-name="bar" unicode="|" horiz-adv-x="294" 
d="M78 -132q13 35 23 92t18 126.5t14 145t11 149t10 137.5t10 111t12 69q19 -7 27 -23t10.5 -34t2.5 -31q0 -39 -1.5 -96t-4 -122t-5 -129.5t-6 -118.5t-6.5 -89q-7 -85 -34.5 -136t-80.5 -51z" />
    <glyph glyph-name="braceright" unicode="}" horiz-adv-x="301" 
d="M70 -87q-13 0 -28.5 6.5t-26.5 22.5t-9 44q27 -18 43 -18q19 0 30 24.5t17.5 62.5t10.5 79q5 44 12 87t21 77t40 51q-13 15 -18 32.5t-5 35.5q0 32 10.5 67.5t24 69.5t24 62t10.5 43q0 13 -7 17t-15 4q-7 0 -15 -3t-16 -8q-4 20 11.5 40t54.5 20q28 0 45 -11t17 -36
q0 -21 -11 -48.5t-25 -60t-25 -68.5t-11 -72q0 -25 9.5 -51.5t40.5 -45.5q-41 -10 -62.5 -40t-29.5 -72t-12 -88q-3 -41 -6.5 -81t-12.5 -72t-29 -51t-57 -19z" />
    <glyph glyph-name="asciitilde" unicode="~" horiz-adv-x="477" 
d="M301 123q-23 0 -58 11t-70 21.5t-60 10.5q-8 0 -23 -1.5t-31 -5.5q16 18 38 33.5t48 15.5q17 0 41.5 -6t52 -13.5t53 -13.5t43.5 -6q8 0 20 2t39 6q-31 -31 -52.5 -42.5t-40.5 -11.5z" />
    <glyph glyph-name="uni00A0" unicode="&#xa0;" horiz-adv-x="260" 
 />
    <glyph glyph-name="exclamdown" unicode="&#xa1;" horiz-adv-x="297" 
d="M-32 -249q-10 0 -19 8.5t-9 21.5q0 14 16.5 55t43.5 98t60 121t66 125.5t62 111t48 75.5l6 -2l6 -2q0 -25 -9 -58.5t-21.5 -67.5t-23.5 -63q-22 -57 -46 -117t-48 -114.5t-47 -98t-44.5 -68.5t-40.5 -25zM244 400q-15 0 -24.5 7t-9.5 24t18.5 33.5t40.5 16.5q16 0 28 -8
t12 -26q0 -19 -20.5 -33t-44.5 -14z" />
    <glyph glyph-name="cent" unicode="&#xa2;" horiz-adv-x="426" 
d="M75 -162q16 17 33.5 57t35 95.5t33.5 119.5q-50 2 -83.5 35.5t-33.5 95.5q0 45 17.5 87.5t47 78.5t66.5 61.5t75 36.5q9 47 16.5 90.5t11.5 74.5q2 14 12 29t49 23l-38 -210q39 0 61 -21.5t22 -61.5q0 -25 -11 -48t-34 -23q-18 0 -33 19q9 5 16 22.5t7 35.5
q0 14 -9.5 24.5t-26.5 10.5q-14 -78 -28.5 -156t-28.5 -148q30 6 60 20.5t57 37.5l22 -24q-34 -31 -71.5 -52.5t-76.5 -30.5q-19 -86 -39 -149t-49.5 -96.5t-79.5 -33.5zM190 162q19 74 34.5 145t30.5 142q-34 -22 -60.5 -58.5t-41.5 -77.5t-15 -77q0 -25 11.5 -46.5
t40.5 -27.5z" />
    <glyph glyph-name="sterling" unicode="&#xa3;" horiz-adv-x="691" 
d="M491 -87q-37 0 -83 15t-94.5 36t-94.5 40q-25 -27 -54 -42t-62 -15q-35 0 -60.5 15.5t-39 37.5t-13.5 40q0 20 18 35t64 15q27 0 59.5 -5.5t66.5 -14.5q36 74 65 158.5t54 165.5q-48 16 -76 45.5t-28 62.5q0 20 9.5 40t28.5 33.5t45 13.5q-11 -15 -15 -33t-4 -32
q0 -33 14 -57t38 -38q26 78 56.5 144t71 106.5t93.5 40.5q22 0 47.5 -9t44 -32.5t18.5 -66.5q0 -34 -15 -74t-46.5 -76t-82 -59t-121.5 -23q-26 -78 -47.5 -136.5t-42.5 -104.5t-47 -85q44 -13 91.5 -26.5t92.5 -22.5t80 -9q25 0 45.5 5.5t43.5 16.5q-20 -56 -49.5 -80.5
t-70.5 -24.5zM89 -18q21 0 42 13t36 29q-31 11 -58.5 18.5t-47.5 7.5q-16 0 -28 -5t-12 -14q0 -7 9.5 -19t25 -21t33.5 -9zM123 212q7 21 36.5 36.5t74 23.5t96.5 8q55 0 107.5 -5.5t95.5 -9.5q-17 -22 -42 -31.5t-69.5 -11t-118.5 -1.5q-68 0 -112.5 -2t-67.5 -7zM406 413
q44 3 78 28t58 60t36.5 71.5t12.5 63.5q0 26 -10 35.5t-23 9.5q-29 0 -55 -37t-49.5 -97.5t-47.5 -133.5z" />
    <glyph glyph-name="currency" unicode="&#xa4;" horiz-adv-x="735" 
d="M647 20q-24 37 -62.5 69t-87.5 78q-26 -31 -58.5 -50t-69.5 -19q-28 0 -50 10t-37 27q-47 -49 -96.5 -68.5t-95.5 -19.5q30 28 55 44.5t50.5 37t54.5 60.5q-4 15 -7 31t-3 33q0 41 10.5 85.5t32.5 86.5q-34 35 -66 63.5t-56 48.5q-9 8 -15 27t-7 38q0 9 2.5 20.5
t7.5 23.5q14 -13 61 -58.5t107 -107.5q26 32 59.5 52t72.5 20q37 0 66 -16.5t46 -45.5q24 30 42.5 56.5t43 43t66.5 16.5q5 0 13.5 -1t17.5 -3q-14 -22 -54.5 -66.5t-107.5 -119.5q1 -7 1.5 -13.5t0.5 -12.5q0 -41 -14 -84.5t-37 -85.5q51 -44 85 -87t35 -80
q0 -5 -0.5 -11.5t-5.5 -21.5zM376 165q25 0 49.5 23.5t45 61.5t32.5 80.5t12 79.5q0 35 -19.5 57t-42.5 22q-30 0 -56 -26t-45 -65t-29.5 -80.5t-10.5 -72.5q0 -36 21.5 -58t42.5 -22z" />
    <glyph glyph-name="yen" unicode="&#xa5;" horiz-adv-x="868" 
d="M382 -187q-41 0 -76 11.5t-56 33.5t-21 55q0 29 19 50.5t58 34.5q-4 -14 -7 -34t-3 -34q0 -34 23 -56t65 -22q39 0 68 18t51 46t37 58q-35 0 -73.5 -2.5t-83.5 -9.5q14 36 63 49.5t115 14.5q4 12 8 23.5t8 23.5q-44 -1 -92 -3t-104 -10q10 27 39.5 40.5t73.5 19t96 5.5
q7 29 14 77t17 96q-25 -42 -56 -76.5t-68.5 -55.5t-83.5 -21q-64 0 -93.5 35t-29.5 92q0 38 9.5 82t22.5 89.5t22.5 87t9.5 74.5q0 29 -11.5 52.5t-43.5 23.5q-27 0 -46.5 -16t-32 -41t-18.5 -52.5t-6 -50.5q0 -33 13 -62q-49 0 -69.5 22t-20.5 55q0 31 15.5 63t43 59.5
t64 44.5t79.5 17q42 0 68 -16t38 -40.5t12 -51.5t-9.5 -65t-22.5 -81.5t-22.5 -88t-9.5 -83.5q0 -43 16 -69t53 -26q35 0 66.5 22t58 57.5t48.5 77.5t38 83q17 73 37 137t42.5 104t46.5 40q12 0 31.5 -10.5t35.5 -27.5q-27 -43 -47.5 -88.5t-35.5 -92.5t-27.5 -95t-23.5 -97
t-24 -98q-5 -22 -11.5 -44t-13.5 -45q35 -1 69 -4t50 -4q-37 -25 -71.5 -33t-60.5 -8l-8 -24t-9 -24q38 -1 73 -3.5t78 -5.5q-37 -26 -70.5 -34t-56.5 -8h-46q-22 -46 -53.5 -82.5t-75 -57.5t-102.5 -21z" />
    <glyph glyph-name="brokenbar" unicode="&#xa6;" horiz-adv-x="295" 
d="M79 -132q13 34 22.5 85.5t16.5 114.5t13 131q9 11 23.5 18.5t30.5 7.5q11 0 15 -10.5t4 -19.5q0 -102 -10 -175t-37 -112.5t-78 -39.5zM137 282q7 92 13 176t12.5 147.5t14.5 93.5q19 -7 27 -21t10.5 -28t2.5 -23q0 -38 -3 -106t-3 -141q0 -10 -6 -32.5t-28 -37.5z" />
    <glyph glyph-name="section" unicode="&#xa7;" horiz-adv-x="443" 
d="M168 -87q-37 0 -71 13.5t-55.5 40t-21.5 66.5q0 36 17 55.5t41.5 27.5t48.5 8q-22 -22 -34 -46.5t-12 -45.5q0 -31 25.5 -55.5t74.5 -24.5q29 0 55 9.5t42.5 28.5t16.5 45q0 31 -21.5 53t-53 41.5t-63 41t-53 50.5t-21.5 70q0 36 18.5 68.5t55.5 53.5t93 22
q-22 13 -42.5 28t-33 35t-12.5 47t13.5 57t38.5 57t60 43.5t78 16.5q45 0 62.5 -19t17.5 -51q0 -24 -8 -51t-19.5 -51.5t-23.5 -42.5q-19 3 -25.5 13t-6.5 22q0 19 9 43l18 48t9 40q0 10 -6 15t-24 5q-40 0 -71.5 -22t-49.5 -52.5t-18 -55.5q0 -27 19.5 -44.5t48 -33t57 -35
t48 -49.5t19.5 -78q0 -45 -19 -74.5t-52 -44.5t-76 -15h-9.5t-7.5 1q18 -10 37 -22t35.5 -28t26.5 -36t10 -46q0 -44 -28 -76t-70.5 -49t-86.5 -17zM242 232q46 0 70.5 22t24.5 60q0 33 -20.5 57.5t-66.5 24.5q-40 0 -71 -21t-31 -60q0 -12 6 -32t26.5 -35.5t61.5 -15.5z
" />
    <glyph glyph-name="dieresis" unicode="&#xa8;" horiz-adv-x="230" 
d="M183 411q-16 0 -29 8.5t-13 25.5q0 20 22.5 34t44.5 14q15 0 26 -7t11 -26q0 -17 -19.5 -33t-42.5 -16zM39 431q-16 0 -29.5 8t-13.5 26q0 19 22.5 33.5t44.5 14.5q16 0 26 -7t10 -25q0 -17 -18.5 -33.5t-41.5 -16.5z" />
    <glyph glyph-name="copyright" unicode="&#xa9;" horiz-adv-x="620" 
d="M344 100q-45 0 -89.5 16t-82 48t-60 80.5t-24.5 113.5q0 67 23 116.5t61 81.5t83.5 48t90.5 16t91.5 -16t85.5 -48t63 -80.5t24 -113.5q0 -67 -24 -116.5t-64 -81.5t-86.5 -48t-91.5 -16zM344 142q65 0 115.5 27.5t80 77.5t29.5 115q0 63 -28.5 111.5t-78.5 76.5t-115 28
q-63 0 -112.5 -27.5t-77.5 -76t-28 -112.5q0 -63 26.5 -113t75 -78.5t113.5 -28.5zM353 206q-38 0 -66 21.5t-28 72.5v129q0 52 24.5 73.5t63.5 21.5q34 0 54.5 -14t29.5 -31.5t9 -30.5q0 -16 -7.5 -20t-14.5 -4q-10 0 -15 5t-7 12q-3 9 -6 18.5t-11.5 16.5t-29.5 7
q-24 0 -35 -13t-11 -41v-129q0 -28 10.5 -41t40.5 -13q20 0 28.5 7t11.5 17t6 19q2 7 5.5 11.5t12.5 4.5q24 0 24 -21q0 -32 -23.5 -55t-65.5 -23z" />
    <glyph glyph-name="ordfeminine" unicode="&#xaa;" horiz-adv-x="410" 
d="M182 447q-22 0 -39.5 16t-17.5 48q0 30 16.5 66t45 68.5t63.5 53.5t71 21q31 0 52 -14.5t21 -38.5q0 -16 -16 -25.5t-33 -7.5q2 7 3.5 13.5t1.5 11.5q0 11 -7 20t-23 9q-23 0 -46.5 -18.5t-43 -47t-31.5 -58.5t-12 -54q0 -20 13 -20q15 0 34 16t39.5 40t38 48t28.5 40
q19 -6 29.5 -11.5t10.5 -12.5q0 -10 -10 -25.5t-19.5 -32.5t-9.5 -32q0 -7 4 -15t14 -8q17 0 46 26t61 80l10 -16q-22 -58 -61 -93t-76 -35q-23 0 -32.5 12.5t-12.5 28.5q-1 5 -1.5 11t-0.5 11q-29 -34 -56.5 -54.5t-53.5 -20.5z" />
    <glyph glyph-name="guillemotleft" unicode="&#xab;" horiz-adv-x="480" 
d="M353 44q-19 0 -46.5 12.5t-54.5 32t-47 40t-25 36.5q37 15 73.5 39.5t69 54.5t55.5 60q2 -2 7 -14.5t5 -17.5q0 -20 -15 -39.5t-39 -37.5t-52 -34t-54 -29q20 -13 40 -24t48.5 -23.5t75.5 -29.5q-8 -9 -19 -17.5t-22 -8.5zM200 44q-19 0 -46.5 12.5t-54.5 32t-47 40
t-25 36.5q37 15 73.5 39.5t69 54.5t55.5 60q2 -2 7 -14.5t5 -17.5q0 -20 -15 -39.5t-39 -37.5t-52 -34t-54 -29q20 -13 40 -24t48.5 -23.5t75.5 -29.5q-8 -9 -19 -17.5t-22 -8.5z" />
    <glyph glyph-name="logicalnot" unicode="&#xac;" horiz-adv-x="676" 
d="M495 26q5 24 8 49t4.5 52.5t1.5 58.5q-11 -1 -23 -1h-20q-68 -1 -116 -1.5t-85 -1t-69 -2t-68 -3.5t-84 -7q16 28 60.5 42t110.5 19t143 5q41 0 80 -0.5t73 -2.5q4 13 12.5 26.5t25.5 29.5q0 -13 2.5 -26t5.5 -32q23 -1 44 -1t33 -3q-17 -18 -36 -25t-38 -11
q0 -20 -0.5 -45t-5.5 -49.5t-18.5 -43.5t-40.5 -27z" />
    <glyph glyph-name="uni00AD" unicode="&#xad;" horiz-adv-x="485" 
d="M43 142q7 22 28 35t47 19t49 7.5t35 1.5q13 0 43 -1t65 -2t65 -2t43 -2q-10 -23 -45.5 -38.5t-76.5 -15.5q-21 0 -54 3t-71 3q-25 0 -52 -1.5t-47.5 -3.5t-28.5 -3z" />
    <glyph glyph-name="registered" unicode="&#xae;" horiz-adv-x="619" 
d="M342 100q-45 0 -90 16t-82 48t-59.5 80.5t-22.5 113.5q0 67 24 116.5t62.5 81.5t84.5 48t91 16t91 -16t84.5 -48t61.5 -80.5t23 -113.5q0 -67 -24.5 -116.5t-64.5 -81.5t-87 -48t-92 -16zM342 142q64 0 115.5 28t81.5 77.5t30 115.5q0 62 -27 110.5t-76 76.5t-114 28
q-63 0 -113.5 -27t-80 -76t-29.5 -116q0 -61 26 -110.5t73.5 -78t113.5 -28.5zM290 207q-8 0 -15.5 5.5t-7.5 15.5l-4 275q0 8 5.5 14t15.5 6h65q24 0 47 -8t37.5 -27t14.5 -54t-16 -56t-42 -28q13 -25 25.5 -49.5t22 -41.5t11.5 -21q1 -1 2 -4.5t1 -6.5q0 -7 -7.5 -13.5
t-15.5 -6.5q-10 0 -17.5 11t-12.5 20l-55 108h-32v-118q0 -10 -7 -15.5t-15 -5.5zM310 386h42q23 0 37 11.5t14 36.5q0 27 -15.5 38t-36.5 11h-41v-97z" />
    <glyph glyph-name="macron" unicode="&#xaf;" horiz-adv-x="413" 
d="M312 421q-23 0 -56.5 5.5t-70 13.5t-69.5 15.5t-56 10.5q11 30 50 30q36 0 78.5 -7.5t86 -18.5t78.5 -24q-12 -25 -41 -25z" />
    <glyph glyph-name="degree" unicode="&#xb0;" horiz-adv-x="293" 
d="M191 396q-41 0 -60 16.5t-19 40.5q0 23 16 48.5t44.5 43t63.5 17.5q44 0 63 -17t19 -40t-17 -48.5t-45.5 -43t-64.5 -17.5zM195 428q19 0 37 12.5t30 30.5t12 34q0 11 -9 17.5t-29 6.5t-38 -12.5t-29 -29.5t-11 -33q0 -10 8.5 -18t28.5 -8z" />
    <glyph glyph-name="plusminus" unicode="&#xb1;" horiz-adv-x="485" 
d="M197 106q6 34 8.5 68.5t2.5 67.5q-26 0 -48 -0.5t-46 -2t-56 -6.5q11 29 52.5 40.5t97.5 13.5v31q0 19 6 41.5t28 51.5q4 -20 8 -54.5t6 -69.5q31 0 64 -2t60 -4t40 -3q-37 -22 -67.5 -29t-51.5 -7h-45q-1 -49 -11 -85.5t-48 -50.5zM56 23q4 25 32.5 37t70.5 16t85 4
q51 0 101.5 -3t78.5 -6q-28 -15 -51 -22t-52 -9t-76 -3q-33 -1 -55.5 -2t-41 -2t-40 -3.5t-52.5 -6.5z" />
    <glyph glyph-name="uni00B2" unicode="&#xb2;" horiz-adv-x="398" 
d="M319 301q-16 0 -38 5.5t-44.5 14t-38.5 16.5q-34 -20 -59 -20q-19 0 -33 10t-14 26q0 32 48 32q12 0 24.5 -1.5t27.5 -4.5q30 26 59 66.5t48 86t19 86.5q0 34 -13 48.5t-33 14.5q-27 0 -42.5 -24.5t-15.5 -61.5q0 -10 2.5 -19t9.5 -26h-19q-22 5 -34.5 16.5t-12.5 35.5
q0 29 15 54t42 40.5t63 15.5q42 0 69 -28t27 -69q0 -43 -18 -88t-48.5 -86t-66.5 -72q26 -5 48.5 -9.5t39.5 -4.5q8 0 20 5.5t36 19.5q-10 -40 -26 -59.5t-42 -19.5zM137 349q4 0 7 1t7 3q-4 1 -8 1h-6q-5 0 -6.5 -0.5t-1.5 -1.5t2.5 -2t5.5 -1z" />
    <glyph glyph-name="uni00B3" unicode="&#xb3;" horiz-adv-x="335" 
d="M199 314q-51 0 -73.5 26t-22.5 52q0 20 13 40t39 20q3 0 8.5 -1t21.5 -6q-12 -9 -18.5 -22t-6.5 -24q0 -19 10.5 -37.5t32.5 -18.5q26 0 48 28t22 68q0 28 -16 54t-62 37q32 14 54 34.5t34 43.5t12 41q0 21 -11 32.5t-25 11.5q-19 0 -33 -15t-14 -36q0 -7 3 -14t7 -16
q-5 -9 -14.5 -16t-17.5 -7q-13 0 -21 16.5t-8 30.5q0 39 32.5 60.5t71.5 21.5q34 0 62 -18t28 -53q0 -19 -8.5 -40.5t-24 -40t-36.5 -29.5q33 -16 46.5 -43t13.5 -50q0 -32 -18.5 -62t-51.5 -49t-77 -19z" />
    <glyph glyph-name="acute" unicode="&#xb4;" horiz-adv-x="141" 
d="M117 404q-13 5 -18.5 16.5t-5.5 16.5q0 8 10 26.5t26 39t33.5 35t33.5 14.5q11 0 19.5 -7.5t10.5 -27.5q-35 -34 -61.5 -59.5t-47.5 -53.5z" />
    <glyph glyph-name="uni00B5" unicode="&#xb5;" horiz-adv-x="616" 
d="M11 -280q-11 0 -20 10.5t-14 22t-6 13.5q14 49 28.5 86.5t29.5 77t29 92.5t27.5 132t25.5 196q2 12 5.5 17.5t20.5 5.5q30 0 43 -16t14 -36q-21 -97 -33 -161.5t-12 -99.5q0 -42 25 -42q19 0 39 19.5t40 50.5t39 66t35 67t28 53q7 -1 21 -4.5t26 -10.5t12 -18l-9.5 -21
t-22.5 -52.5t-22.5 -65.5t-9.5 -60q0 -15 6 -24.5t22 -9.5q21 0 51 19t61 55t56 87l24 -16q-22 -55 -58 -98t-76.5 -67t-78.5 -24q-37 0 -59 22.5t-22 57.5v8t1 8q-26 -41 -56 -68.5t-66 -27.5q-10 0 -22.5 5.5t-19.5 12.5q-36 -127 -60.5 -194.5t-41.5 -67.5z" />
    <glyph glyph-name="paragraph" unicode="&#xb6;" horiz-adv-x="686" 
d="M358 -87q3 53 7.5 114t9.5 125q-26 2 -64.5 7t-80 16.5t-78 32t-59 52t-22.5 76.5q0 56 28.5 99t75.5 74t103.5 49t111.5 23q-3 66 -12 125q12 6 21 8t16 2q17 0 26.5 -13.5t13.5 -34t5 -43.5t1 -42q8 -1 22 -2.5t21 -4.5q-2 39 -4.5 73t-5.5 56q10 7 18.5 9t15.5 2
q14 0 23.5 -22t15 -57.5t8.5 -77.5q26 -7 48.5 -16.5t41.5 -17.5q-3 -7 -13.5 -15.5t-21.5 -15t-16 -6.5q-6 0 -13.5 4.5t-23.5 11.5q3 -35 4 -68t1 -65q0 -185 -3 -288t-8 -117q-7 -25 -32 -39t-53 -14q1 3 3.5 35.5t5.5 85.5t6 117.5t4.5 133.5t1.5 134t-3 116q-7 2 -19 4
t-20 3q3 -52 4.5 -89.5t2.5 -70t1 -70.5q0 -60 -1 -119.5t-3 -108.5t-3.5 -80.5t-3.5 -36.5q-5 -15 -22.5 -27.5t-39.5 -19.5t-42 -7z" />
    <glyph glyph-name="periodcentered" unicode="&#xb7;" horiz-adv-x="241" 
d="M99 115q-24 0 -32.5 12t-8.5 25q0 11 10.5 22.5t25.5 19t28 7.5q11 0 22 -5.5t11 -23.5q0 -8 -7 -21.5t-19.5 -24.5t-29.5 -11z" />
    <glyph glyph-name="cedilla" unicode="&#xb8;" horiz-adv-x="232" 
d="M79 -233q-30 0 -48 13.5t-18 27.5q0 9 8 20.5t24 22.5q8 -25 18.5 -35t21.5 -10q17 0 35.5 14.5t32 34t13.5 34.5q0 8 -4.5 12t-11.5 4q-12 0 -27 -9t-29 -18.5t-23 -9.5t-15 9t-6 16q0 2 9 15t23 31.5t28 35.5t24 25h16l-47 -75q8 3 23 7.5t31 4.5q23 0 38.5 -12.5
t15.5 -37.5q0 -27 -18.5 -54.5t-48.5 -46.5t-65 -19z" />
    <glyph glyph-name="uni00B9" unicode="&#xb9;" horiz-adv-x="308" 
d="M146 314q-11 0 -28 9.5t-31 28.5q30 0 45.5 0.5t36.5 2.5q10 24 18.5 61t15.5 77t13 74.5t11 52.5q-19 -10 -28 -14t-14 -4q-10 0 -16 6.5t-6 23.5q9 5 28.5 18t44.5 31t48 36h4q2 -1 2.5 -2.5t1.5 -3.5q2 -4 2 -9.5v-7.5q0 -8 -5.5 -36.5t-14.5 -72t-20 -98.5l-12 -60
q-4 -21 -9 -37.5t-11 -28.5q23 0 39.5 -9t22.5 -37q-10 1 -26 2t-26 1q-28 0 -46.5 -2t-39.5 -2z" />
    <glyph glyph-name="ordmasculine" unicode="&#xba;" horiz-adv-x="310" 
d="M191 452q-29 0 -46.5 18t-17.5 47q0 27 14 61t38.5 66.5t56 53.5t65.5 21q13 0 21 -3.5t13 -9.5q17 -1 25 -12t8 -20q0 -10 -6.5 -24t-13.5 -28.5t-7 -27.5q0 -7 4.5 -9.5t11.5 -2.5q9 0 14 1t10 3q0 -18 -12 -26.5t-27 -8.5q-14 0 -25 8q-22 -47 -55 -77t-71 -30z
M208 492q15 0 31.5 14t32.5 36.5t26 46.5q-2 9 -3 16t-1 21q0 21 1.5 32.5t4.5 18.5q-25 -4 -46.5 -22t-37 -42.5t-24.5 -48.5t-9 -40q0 -14 7 -23t18 -9z" />
    <glyph glyph-name="guillemotright" unicode="&#xbb;" horiz-adv-x="492" 
d="M261 44q-11 0 -22 8.5t-19 17.5q47 17 76 29.5t48.5 23.5t39.5 24q-26 13 -54 29t-52 34t-39 37.5t-15 39.5q0 5 5 17.5t7 14.5q23 -30 55.5 -60t69.5 -54.5t73 -39.5q-5 -16 -25 -36.5t-47 -40t-54.5 -32t-46.5 -12.5zM108 44q-11 0 -22 8.5t-19 17.5q47 17 76 29.5
t48.5 23.5t39.5 24q-26 13 -54 29t-52 34t-39 37.5t-15 39.5q0 5 5 17.5t7 14.5q23 -30 55.5 -60t69.5 -54.5t73 -39.5q-5 -16 -25 -36.5t-47 -40t-54.5 -32t-46.5 -12.5z" />
    <glyph glyph-name="onequarter" unicode="&#xbc;" horiz-adv-x="686" 
d="M52 -87q25 24 62.5 76.5t81.5 122.5t89.5 148.5t87.5 155.5t74.5 143.5t49.5 111.5q4 11 20.5 21t38 15.5t40.5 2.5q-5 -14 -25.5 -55t-50.5 -98.5t-65.5 -123t-71 -130t-66.5 -118.5t-53 -88q-53 -82 -104 -133t-108 -51zM560 -27q-31 2 -47 10.5t-16 24.5q0 7 4 34
t17 89q-8 1 -16.5 1h-16.5q-29 0 -58 -3t-50 -8q0 16 4 25t8 13q32 27 73.5 63.5t81 78.5t63.5 82q20 -2 21 -21q0 -9 -12.5 -50t-30.5 -138h10q8 0 21 2.5t32 5.5q-17 -23 -37 -37.5t-34 -14.5q-1 -11 -4 -31t-6 -43t-5 -45.5t-2 -37.5zM459 177q12 0 29.5 -0.5t40.5 -0.5
q5 24 7 37t4.5 22.5t6.5 22.5l-28 -25q-17 -15 -26.5 -23.5t-16.5 -15t-17 -17.5zM140 314q-11 0 -28 9.5t-31 28.5q30 0 45.5 0.5t36.5 2.5q10 24 18.5 61t15.5 77t13 74.5t11 52.5q-19 -10 -28 -14t-14 -4q-10 0 -16 6.5t-6 23.5q9 5 28.5 18t44 31t48.5 36h4
q2 -1 2.5 -2.5t1.5 -3.5q2 -4 2 -9.5v-7.5q0 -12 -13 -76t-39 -191q-4 -21 -9 -37.5t-11 -28.5q23 0 39.5 -9t22.5 -37q-10 1 -26 2t-26 1q-28 0 -46.5 -2t-39.5 -2z" />
    <glyph glyph-name="onehalf" unicode="&#xbd;" horiz-adv-x="743" 
d="M60 -87q25 24 62.5 76.5t81.5 122.5t90 148.5t87.5 155.5t74.5 143.5t50 111.5q4 11 19 22t35 19t38 8q-4 -16 -23.5 -59t-49 -101.5t-64 -124.5t-70 -131t-66.5 -119t-53 -88q-53 -82 -103.5 -133t-108.5 -51zM421 21q4 0 7 1t7 3q-4 1 -8 1h-6q-5 0 -6.5 -0.5
t-1.5 -1.5t2.5 -2t5.5 -1zM603 -27q-16 0 -38 5.5t-44.5 14t-38.5 16.5q-34 -20 -59 -20q-19 0 -33 10t-14 26q0 32 48 32q12 0 24.5 -1.5t27.5 -4.5q30 26 59 66.5t48 86t19 86.5q0 34 -13 48.5t-33 14.5q-27 0 -42.5 -24.5t-15.5 -61.5q0 -10 2.5 -19t9.5 -26h-19
q-22 5 -34.5 16.5t-12.5 35.5q0 29 15 54t42 40.5t63 15.5q42 0 69 -28t27 -69q0 -43 -18 -88t-48.5 -86t-66.5 -72q26 -5 48.5 -9.5t39.5 -4.5q8 0 20 5.5t36 19.5q-10 -40 -26 -59.5t-42 -19.5zM140 314q-11 0 -28 9.5t-31 28.5q30 0 45.5 0.5t36.5 2.5q10 24 18.5 61
t15.5 77t13 74.5t11 52.5q-19 -10 -28 -14t-14 -4q-10 0 -16 6.5t-6 23.5q9 5 28.5 18t44 31t48.5 36h4q2 -1 2.5 -2.5t1.5 -3.5q2 -4 2 -9.5v-7.5q0 -12 -13 -76t-39 -191q-4 -21 -9 -37.5t-11 -28.5q23 0 39.5 -9t22.5 -37q-10 1 -26 2t-26 1q-28 0 -46.5 -2t-39.5 -2z
" />
    <glyph glyph-name="threequarters" unicode="&#xbe;" horiz-adv-x="733" 
d="M100 -87q57 69 106 139t91 140t78 137t66.5 128.5t56.5 115.5t47 98q6 12 21 23t34.5 18.5t37.5 7.5q-4 -17 -22 -57t-46 -95.5t-61.5 -119t-69 -128t-69 -122t-60.5 -100.5q-52 -83 -101.5 -134t-108.5 -51zM193 307q-35 0 -56.5 12.5t-31 31t-9.5 35.5q0 21 12.5 41
t39.5 20q5 0 11 -1t20 -5q-13 -10 -20 -23.5t-7 -26.5q0 -19 13 -35.5t33 -16.5q26 0 48.5 28t22.5 68q0 28 -16 55t-63 37q31 14 54 35t35.5 44.5t12.5 41.5q0 22 -12 33t-26 11q-18 0 -33 -14t-15 -34q0 -7 3 -15.5t7 -17.5q-4 -9 -14 -16t-18 -7q-13 0 -20.5 16.5
t-9.5 30.5q0 27 15.5 45.5t40 28t50.5 9.5q34 0 62.5 -17.5t28.5 -55.5q0 -19 -8.5 -41t-24.5 -40.5t-37 -29.5q32 -15 46.5 -42t14.5 -53q0 -31 -18.5 -61.5t-52 -50.5t-78.5 -20zM608 -27q-31 2 -47 10.5t-16 24.5q0 7 4 34t17 89q-8 1 -16.5 1h-16.5q-29 0 -58 -3t-50 -8
q0 16 4 25t8 13q32 27 73.5 63.5t81 78.5t63.5 82q20 -2 21 -21q0 -9 -12.5 -50t-30.5 -138h10q8 0 21 2.5t32 5.5q-17 -23 -37 -37.5t-34 -14.5q-1 -11 -4 -31t-6 -43t-5 -45.5t-2 -37.5zM507 177q12 0 29.5 -0.5t40.5 -0.5q5 24 7 37t4.5 22.5t6.5 22.5l-28 -25
q-17 -15 -26.5 -23.5t-16.5 -15t-17 -17.5z" />
    <glyph glyph-name="questiondown" unicode="&#xbf;" horiz-adv-x="437" 
d="M109 -280q-67 0 -108.5 35.5t-41.5 102.5q0 38 16 67.5t41 54t52.5 49.5t51 55t36.5 69q11 35 13 60t14 58q25 -13 33.5 -23t8.5 -33q0 -41 -19 -74.5t-47.5 -63.5t-57 -60.5t-47.5 -66t-19 -79.5q0 -54 22 -82.5t55 -28.5q35 0 68.5 27t56 72.5t22.5 99.5q0 17 -2.5 33
t-8.5 35q49 -7 65.5 -29.5t16.5 -54.5q0 -57 -27 -108t-76.5 -83t-117.5 -32zM201 319q-15 0 -25 7t-10 22q0 20 18.5 36t41.5 16q16 0 28 -8t12 -25q0 -20 -21.5 -34t-43.5 -14z" />
    <glyph glyph-name="Agrave" unicode="&#xc0;" horiz-adv-x="631" 
d="M46 -87q-30 16 -38 33t-8 29q0 27 19.5 72.5t52.5 104.5t75 123q-31 2 -59 3t-72 1h-16q14 36 44.5 50.5t71.5 14.5q17 0 35.5 -2t38.5 -4q50 72 98.5 136t92 115.5t77.5 84.5q48 48 70 48q14 0 31.5 -11t36.5 -28q-10 -8 -25.5 -41t-33 -83.5t-35 -110.5t-31.5 -122
t-22.5 -118.5t-8.5 -99.5q0 -40 8 -59.5t27 -19.5q23 0 57 35t76 114l18 -19q-31 -82 -80.5 -135t-105.5 -53q-48 0 -68 41.5t-20 113.5q0 23 3 52t10 72q-44 7 -78 11t-65 8q-48 -85 -93 -176t-83 -180zM375 299q13 59 30.5 119.5t37 116t38.5 99.5q-30 -24 -67 -69
t-77.5 -106t-82.5 -133q30 -6 60 -13t61 -14zM587 748q-23 28 -49.5 53.5t-67.5 56.5q2 20 11.5 29.5t20.5 9.5q15 0 34 -13.5t36.5 -33.5t28.5 -38.5t11 -27.5q0 -7 -6.5 -19t-18.5 -17z" />
    <glyph glyph-name="Aacute" unicode="&#xc1;" horiz-adv-x="631" 
d="M46 -87q-30 16 -38 33t-8 29q0 27 19.5 72.5t52.5 104.5t75 123q-31 2 -59 3t-72 1h-16q14 36 44.5 50.5t71.5 14.5q17 0 35.5 -2t38.5 -4q50 72 98.5 136t92 115.5t77.5 84.5q48 48 70 48q14 0 31.5 -11t36.5 -28q-10 -8 -25.5 -41t-33 -83.5t-35 -110.5t-31.5 -122
t-22.5 -118.5t-8.5 -99.5q0 -40 8 -59.5t27 -19.5q23 0 57 35t76 114l18 -19q-31 -82 -80.5 -135t-105.5 -53q-48 0 -68 41.5t-20 113.5q0 23 3 52t10 72q-44 7 -78 11t-65 8q-48 -85 -93 -176t-83 -180zM375 299q13 59 30.5 119.5t37 116t38.5 99.5q-30 -24 -67 -69
t-77.5 -106t-82.5 -133q30 -6 60 -13t61 -14zM595 748q-13 5 -18.5 16.5t-5.5 16.5q0 8 10 26.5t26 39t33.5 35t33.5 14.5q11 0 19.5 -7.5t10.5 -27.5q-35 -34 -61.5 -59.5t-47.5 -53.5z" />
    <glyph glyph-name="Acircumflex" unicode="&#xc2;" horiz-adv-x="631" 
d="M46 -87q-30 16 -38 33t-8 29q0 27 19.5 72.5t52.5 104.5t75 123q-31 2 -59 3t-72 1h-16q14 36 44.5 50.5t71.5 14.5q17 0 35.5 -2t38.5 -4q50 72 98.5 136t92 115.5t77.5 84.5q48 48 70 48q14 0 31.5 -11t36.5 -28q-10 -8 -25.5 -41t-33 -83.5t-35 -110.5t-31.5 -122
t-22.5 -118.5t-8.5 -99.5q0 -40 8 -59.5t27 -19.5q23 0 57 35t76 114l18 -19q-31 -82 -80.5 -135t-105.5 -53q-48 0 -68 41.5t-20 113.5q0 23 3 52t10 72q-44 7 -78 11t-65 8q-48 -85 -93 -176t-83 -180zM375 299q13 59 30.5 119.5t37 116t38.5 99.5q-30 -24 -67 -69
t-77.5 -106t-82.5 -133q30 -6 60 -13t61 -14zM684 744q-16 27 -33.5 45.5t-38.5 37.5q-27 -9 -51.5 -22t-50.5 -30q-7 5 -10 14t-3 14q0 15 13.5 30t33.5 27.5t39 20.5t30 8q12 0 28.5 -10.5t32 -27t25.5 -35t10 -33.5q0 -10 -5.5 -21t-19.5 -18z" />
    <glyph glyph-name="Atilde" unicode="&#xc3;" horiz-adv-x="631" 
d="M46 -87q-30 16 -38 33t-8 29q0 27 19.5 72.5t52.5 104.5t75 123q-31 2 -59 3t-72 1h-16q14 36 44.5 50.5t71.5 14.5q17 0 35.5 -2t38.5 -4q50 72 98.5 136t92 115.5t77.5 84.5q48 48 70 48q14 0 31.5 -11t36.5 -28q-10 -8 -25.5 -41t-33 -83.5t-35 -110.5t-31.5 -122
t-22.5 -118.5t-8.5 -99.5q0 -40 8 -59.5t27 -19.5q23 0 57 35t76 114l18 -19q-31 -82 -80.5 -135t-105.5 -53q-48 0 -68 41.5t-20 113.5q0 23 3 52t10 72q-44 7 -78 11t-65 8q-48 -85 -93 -176t-83 -180zM375 299q13 59 30.5 119.5t37 116t38.5 99.5q-30 -24 -67 -69
t-77.5 -106t-82.5 -133q30 -6 60 -13t61 -14zM667 755q-28 0 -58 12t-59.5 24t-55.5 12q-17 0 -32.5 -2.5t-32.5 -10.5q12 30 35 44.5t55 14.5q28 0 57.5 -12t58.5 -24t57 -12q30 0 59 10q-14 -27 -33.5 -41.5t-50.5 -14.5z" />
    <glyph glyph-name="Adieresis" unicode="&#xc4;" horiz-adv-x="631" 
d="M46 -87q-30 16 -38 33t-8 29q0 27 19.5 72.5t52.5 104.5t75 123q-31 2 -59 3t-72 1h-16q14 36 44.5 50.5t71.5 14.5q17 0 35.5 -2t38.5 -4q50 72 98.5 136t92 115.5t77.5 84.5q48 48 70 48q14 0 31.5 -11t36.5 -28q-10 -8 -25.5 -41t-33 -83.5t-35 -110.5t-31.5 -122
t-22.5 -118.5t-8.5 -99.5q0 -40 8 -59.5t27 -19.5q23 0 57 35t76 114l18 -19q-31 -82 -80.5 -135t-105.5 -53q-48 0 -68 41.5t-20 113.5q0 23 3 52t10 72q-44 7 -78 11t-65 8q-48 -85 -93 -176t-83 -180zM375 299q13 59 30.5 119.5t37 116t38.5 99.5q-30 -24 -67 -69
t-77.5 -106t-82.5 -133q30 -6 60 -13t61 -14zM667 753q-16 0 -29 8.5t-13 25.5q0 20 22.5 34t44.5 14q15 0 26 -7t11 -26q0 -17 -19.5 -33t-42.5 -16zM523 773q-16 0 -29.5 8t-13.5 26q0 19 22.5 33.5t44.5 14.5q16 0 26 -7t10 -25q0 -17 -18.5 -33.5t-41.5 -16.5z" />
    <glyph glyph-name="Aring" unicode="&#xc5;" horiz-adv-x="631" 
d="M46 -87q-30 16 -38 33t-8 29q0 27 19.5 72.5t52.5 104.5t75 123q-31 2 -59 3t-72 1h-16q14 36 44.5 50.5t71.5 14.5q17 0 35.5 -2t38.5 -4q50 72 98.5 136t92 115.5t77.5 84.5q48 48 70 48q14 0 31.5 -11t36.5 -28q-10 -8 -25.5 -41t-33 -83.5t-35 -110.5t-31.5 -122
t-22.5 -118.5t-8.5 -99.5q0 -40 8 -59.5t27 -19.5q23 0 57 35t76 114l18 -19q-31 -82 -80.5 -135t-105.5 -53q-48 0 -68 41.5t-20 113.5q0 23 3 52t10 72q-44 7 -78 11t-65 8q-48 -85 -93 -176t-83 -180zM375 299q13 59 30.5 119.5t37 116t38.5 99.5q-30 -24 -67 -69
t-77.5 -106t-82.5 -133q30 -6 60 -13t61 -14zM585 754q-40 0 -59 16.5t-19 40.5q0 23 16 48.5t44 43t64 17.5q44 0 63 -17t19 -40t-17 -48.5t-46 -43t-65 -17.5zM593 789q18 0 33.5 11t25.5 26.5t10 29.5q0 10 -8 18t-27 8q-17 0 -33 -10.5t-25.5 -25.5t-9.5 -29
q1 -9 9 -18.5t25 -9.5z" />
    <glyph glyph-name="AE" unicode="&#xc6;" horiz-adv-x="790" 
d="M45 -87q-30 16 -38 33t-8 28q0 27 19.5 73t52.5 105t75 123q-34 2 -58.5 3t-41.5 1h-47q14 36 44.5 50.5t72.5 14.5q17 0 35 -2t38 -4q53 76 105.5 145t99 123t81.5 85t53 31q42 0 90 -2.5t95 -6t86 -7.5t62 -7q-7 -20 -35 -31t-67.5 -14.5t-83.5 -3.5q-28 0 -53.5 0.5
t-50.5 1.5q-16 -33 -37.5 -94.5t-40.5 -134.5q72 -2 125.5 -11t92.5 -13q-8 -20 -35.5 -31t-67 -14.5t-83.5 -3.5h-29t-22 1q-16 -70 -25.5 -136.5t-9.5 -114.5q0 -10 1 -18t2 -15q33 -5 73.5 -8.5t81 -6.5t76 -6.5t57.5 -9.5q-7 -20 -34.5 -30.5t-67 -14t-83.5 -3.5
q-43 0 -84.5 0.5t-73.5 3.5q-20 18 -28.5 54.5t-8.5 79.5q0 29 4 60t10 64q-44 7 -78 11t-65 8q-48 -85 -93 -176t-83 -180zM374 299q13 59 30.5 119.5t37 116t38.5 99.5q-30 -24 -67 -69t-77.5 -106t-82.5 -133q32 -6 64 -14t57 -13z" />
    <glyph glyph-name="Ccedilla" unicode="&#xc7;" horiz-adv-x="570" 
d="M250 -87q-76 0 -124.5 36t-71 93t-22.5 118q0 79 24 158.5t66.5 151.5t96.5 128t115.5 88.5t122.5 32.5q44 0 74 -20.5t30 -70.5q0 -30 -10.5 -67t-28 -71.5t-39.5 -56.5t-45 -22q-10 0 -21 7t-20 24q15 17 34 41.5t36 52t28 54t11 46.5q0 18 -10 28.5t-35 10.5
q-44 0 -90.5 -33t-89.5 -88.5t-77.5 -124t-54.5 -141t-20 -137.5q0 -48 14.5 -91.5t46.5 -71t84 -27.5q54 0 107.5 30t98 79t71.5 105l26 -17q-35 -67 -84 -122.5t-110.5 -89t-132.5 -33.5zM387 -233q-30 0 -48 13.5t-18 27.5q0 9 8 20.5t24 22.5q8 -25 18.5 -35t21.5 -10
q17 0 35.5 14.5t32 34t13.5 34.5q0 8 -4.5 12t-11.5 4q-12 0 -27 -9t-29 -18.5t-23 -9.5t-15 9t-6 16q0 2 9 15t23 31.5t28 35.5t24 25h16l-47 -75q8 3 23 7.5t31 4.5q23 0 38.5 -12.5t15.5 -37.5q0 -27 -18.5 -54.5t-48.5 -46.5t-65 -19z" />
    <glyph glyph-name="Egrave" unicode="&#xc8;" horiz-adv-x="533" 
d="M209 -87q-64 0 -112 25.5t-74.5 68t-26.5 94.5q0 44 19 87t53.5 78.5t81 60t101.5 32.5q-36 32 -54 71t-18 80q0 53 27 101t76 78t114 30q61 0 94 -29.5t33 -85.5q0 -39 -14 -74.5t-33.5 -57.5t-38.5 -22q-14 0 -26.5 12.5t-21.5 28.5q37 30 62.5 64t25.5 70
q0 30 -20 45.5t-52 15.5q-45 0 -75.5 -27.5t-46 -70t-15.5 -87.5q0 -43 16 -86.5t58 -75.5q-72 -11 -125 -49.5t-82 -89.5t-29 -101q0 -30 12.5 -63t41 -55.5t76.5 -22.5q55 0 108 30.5t97.5 80.5t71.5 106l27 -17q-37 -69 -87 -124.5t-111 -88t-133 -32.5zM450 748
q-23 28 -49.5 53.5t-67.5 56.5q2 20 11.5 29.5t20.5 9.5q15 0 34 -13.5t36.5 -33.5t28.5 -38.5t11 -27.5q0 -7 -6.5 -19t-18.5 -17z" />
    <glyph glyph-name="Eacute" unicode="&#xc9;" horiz-adv-x="533" 
d="M209 -87q-64 0 -112 25.5t-74.5 68t-26.5 94.5q0 44 19 87t53.5 78.5t81 60t101.5 32.5q-36 32 -54 71t-18 80q0 53 27 101t76 78t114 30q61 0 94 -29.5t33 -85.5q0 -39 -14 -74.5t-33.5 -57.5t-38.5 -22q-14 0 -26.5 12.5t-21.5 28.5q37 30 62.5 64t25.5 70
q0 30 -20 45.5t-52 15.5q-45 0 -75.5 -27.5t-46 -70t-15.5 -87.5q0 -43 16 -86.5t58 -75.5q-72 -11 -125 -49.5t-82 -89.5t-29 -101q0 -30 12.5 -63t41 -55.5t76.5 -22.5q55 0 108 30.5t97.5 80.5t71.5 106l27 -17q-37 -69 -87 -124.5t-111 -88t-133 -32.5zM458 748
q-13 5 -18.5 16.5t-5.5 16.5q0 8 10 26.5t26 39t33.5 35t33.5 14.5q11 0 19.5 -7.5t10.5 -27.5q-35 -34 -61.5 -59.5t-47.5 -53.5z" />
    <glyph glyph-name="Ecircumflex" unicode="&#xca;" horiz-adv-x="533" 
d="M209 -87q-64 0 -112 25.5t-74.5 68t-26.5 94.5q0 44 19 87t53.5 78.5t81 60t101.5 32.5q-36 32 -54 71t-18 80q0 53 27 101t76 78t114 30q61 0 94 -29.5t33 -85.5q0 -39 -14 -74.5t-33.5 -57.5t-38.5 -22q-14 0 -26.5 12.5t-21.5 28.5q37 30 62.5 64t25.5 70
q0 30 -20 45.5t-52 15.5q-45 0 -75.5 -27.5t-46 -70t-15.5 -87.5q0 -43 16 -86.5t58 -75.5q-72 -11 -125 -49.5t-82 -89.5t-29 -101q0 -30 12.5 -63t41 -55.5t76.5 -22.5q55 0 108 30.5t97.5 80.5t71.5 106l27 -17q-37 -69 -87 -124.5t-111 -88t-133 -32.5zM547 744
q-16 27 -33.5 45.5t-38.5 37.5q-27 -9 -51.5 -22t-50.5 -30q-7 5 -10 14t-3 14q0 15 13.5 30t33.5 27.5t39 20.5t30 8q12 0 28.5 -10.5t32 -27t25.5 -35t10 -33.5q0 -10 -5.5 -21t-19.5 -18z" />
    <glyph glyph-name="Edieresis" unicode="&#xcb;" horiz-adv-x="533" 
d="M209 -87q-64 0 -112 25.5t-74.5 68t-26.5 94.5q0 44 19 87t53.5 78.5t81 60t101.5 32.5q-36 32 -54 71t-18 80q0 53 27 101t76 78t114 30q61 0 94 -29.5t33 -85.5q0 -39 -14 -74.5t-33.5 -57.5t-38.5 -22q-14 0 -26.5 12.5t-21.5 28.5q37 30 62.5 64t25.5 70
q0 30 -20 45.5t-52 15.5q-45 0 -75.5 -27.5t-46 -70t-15.5 -87.5q0 -43 16 -86.5t58 -75.5q-72 -11 -125 -49.5t-82 -89.5t-29 -101q0 -30 12.5 -63t41 -55.5t76.5 -22.5q55 0 108 30.5t97.5 80.5t71.5 106l27 -17q-37 -69 -87 -124.5t-111 -88t-133 -32.5zM530 753
q-16 0 -29 8.5t-13 25.5q0 20 22.5 34t44.5 14q15 0 26 -7t11 -26q0 -17 -19.5 -33t-42.5 -16zM386 773q-16 0 -29.5 8t-13.5 26q0 19 22.5 33.5t44.5 14.5q16 0 26 -7t10 -25q0 -17 -18.5 -33.5t-41.5 -16.5z" />
    <glyph glyph-name="Igrave" unicode="&#xcc;" horiz-adv-x="503" 
d="M-18 -88q4 43 28 62.5t62 25.5t82 6q18 38 34.5 91.5t32 114.5t30 124.5t27.5 123t25 108.5t23 81q-51 -1 -90.5 -4t-74.5 -8t-72 -12q11 50 63 72t159 22q53 0 110 -4t105 -9t75 -9q-34 -32 -64 -39.5t-52 -7.5h-58.5t-49.5 -1q-7 -34 -15.5 -83t-19 -105t-20.5 -112
t-20 -104.5t-18 -80.5q-13 -52 -31 -95t-41 -65q53 -4 107 -10t119 -8q-40 -37 -76 -46.5t-59 -9.5q-67 0 -111.5 -0.5t-77.5 -2t-63.5 -5.5t-68.5 -10zM371 747q-23 28 -49.5 53.5t-67.5 56.5q2 20 11.5 29.5t20.5 9.5q15 0 34 -13.5t36.5 -33.5t28.5 -38.5t11 -27.5
q0 -7 -6.5 -19t-18.5 -17z" />
    <glyph glyph-name="Iacute" unicode="&#xcd;" horiz-adv-x="503" 
d="M-18 -88q4 43 28 62.5t62 25.5t82 6q18 38 34.5 91.5t32 114.5t30 124.5t27.5 123t25 108.5t23 81q-51 -1 -90.5 -4t-74.5 -8t-72 -12q11 50 63 72t159 22q53 0 110 -4t105 -9t75 -9q-34 -32 -64 -39.5t-52 -7.5h-58.5t-49.5 -1q-7 -34 -15.5 -83t-19 -105t-20.5 -112
t-20 -104.5t-18 -80.5q-13 -52 -31 -95t-41 -65q53 -4 107 -10t119 -8q-40 -37 -76 -46.5t-59 -9.5q-67 0 -111.5 -0.5t-77.5 -2t-63.5 -5.5t-68.5 -10zM379 747q-13 5 -18.5 16.5t-5.5 16.5q0 8 10 26.5t26 39t33.5 35t33.5 14.5q11 0 19.5 -7.5t10.5 -27.5
q-35 -34 -61.5 -59.5t-47.5 -53.5z" />
    <glyph glyph-name="Icircumflex" unicode="&#xce;" horiz-adv-x="503" 
d="M-18 -88q4 43 28 62.5t62 25.5t82 6q18 38 34.5 91.5t32 114.5t30 124.5t27.5 123t25 108.5t23 81q-51 -1 -90.5 -4t-74.5 -8t-72 -12q11 50 63 72t159 22q53 0 110 -4t105 -9t75 -9q-34 -32 -64 -39.5t-52 -7.5h-58.5t-49.5 -1q-7 -34 -15.5 -83t-19 -105t-20.5 -112
t-20 -104.5t-18 -80.5q-13 -52 -31 -95t-41 -65q53 -4 107 -10t119 -8q-40 -37 -76 -46.5t-59 -9.5q-67 0 -111.5 -0.5t-77.5 -2t-63.5 -5.5t-68.5 -10zM468 743q-16 27 -33.5 45.5t-38.5 37.5q-27 -9 -51.5 -22t-50.5 -30q-7 5 -10 14t-3 14q0 15 13.5 30t33.5 27.5
t39 20.5t30 8q12 0 28.5 -10.5t32 -27t25.5 -35t10 -33.5q0 -10 -5.5 -21t-19.5 -18z" />
    <glyph glyph-name="Idieresis" unicode="&#xcf;" horiz-adv-x="503" 
d="M-18 -88q4 43 28 62.5t62 25.5t82 6q18 38 34.5 91.5t32 114.5t30 124.5t27.5 123t25 108.5t23 81q-51 -1 -90.5 -4t-74.5 -8t-72 -12q11 50 63 72t159 22q53 0 110 -4t105 -9t75 -9q-34 -32 -64 -39.5t-52 -7.5h-58.5t-49.5 -1q-7 -34 -15.5 -83t-19 -105t-20.5 -112
t-20 -104.5t-18 -80.5q-13 -52 -31 -95t-41 -65q53 -4 107 -10t119 -8q-40 -37 -76 -46.5t-59 -9.5q-67 0 -111.5 -0.5t-77.5 -2t-63.5 -5.5t-68.5 -10zM451 752q-16 0 -29 8.5t-13 25.5q0 20 22.5 34t44.5 14q15 0 26 -7t11 -26q0 -17 -19.5 -33t-42.5 -16zM307 772
q-16 0 -29.5 8t-13.5 26q0 19 22.5 33.5t44.5 14.5q16 0 26 -7t10 -25q0 -17 -18.5 -33.5t-41.5 -16.5z" />
    <glyph glyph-name="Eth" unicode="&#xd0;" horiz-adv-x="688" 
d="M192 -87q-36 0 -67.5 9.5t-54.5 40.5q14 68 36.5 152t47.5 163q-27 -1 -60 -4.5t-66 -8.5q17 34 54.5 47t87.5 16q22 69 42 127.5t29 81.5q3 8 10 24t18 33t25.5 28.5t31.5 11.5t38 -14q-28 -64 -56 -138.5t-53 -151.5q53 0 104 -4t79 -6q-37 -25 -70.5 -33t-56.5 -8h-72
q-28 -87 -50.5 -170t-37.5 -153q11 -1 19.5 -2t18.5 -1q64 0 124 28t111.5 77t90.5 112t60.5 134t21.5 142q0 120 -59.5 176.5t-154.5 56.5q-65 0 -116.5 -23.5t-81 -64.5t-29.5 -92q0 -11 2 -23.5t7 -24.5q-43 0 -61.5 18.5t-18.5 45.5q0 35 25.5 71t71 66.5t105 49
t128.5 18.5q99 0 158.5 -39t86 -103.5t26.5 -142.5q0 -86 -27.5 -164t-76 -143.5t-111.5 -113.5t-134.5 -74.5t-144.5 -26.5z" />
    <glyph glyph-name="Ntilde" unicode="&#xd1;" horiz-adv-x="674" 
d="M56 -87q15 50 34 109.5t44 140t58 191.5t76 262q1 3 4 15t3 24q0 8 -2.5 11t-10.5 3q-21 0 -40.5 -17t-35 -42.5t-24 -53t-8.5 -49.5q0 -24 10 -47q-44 0 -62 18.5t-18 46.5q0 34 21 68.5t53.5 63t68 46t64.5 17.5q35 0 57.5 -25.5t37 -69.5t24.5 -100t19 -118
q12 -80 19 -127.5t11.5 -75.5t8 -47t7.5 -43q12 48 24.5 101.5t25.5 108.5t25.5 107.5t25.5 98.5t25.5 81.5t24.5 56.5q9 16 28.5 34.5t52.5 18.5q-17 -45 -38.5 -111.5t-43.5 -144t-42.5 -158t-36.5 -156t-25.5 -137.5t-9.5 -101q-37 0 -60.5 17.5t-35.5 68.5q-4 17 -12 57
t-18 94.5t-21 114.5t-21 117.5t-18 103t-13 69.5q-45 -164 -77 -277.5t-56 -185t-43 -110.5t-38 -54t-42 -15zM588 755q-28 0 -58 12t-59.5 24t-55.5 12q-17 0 -32.5 -2.5t-32.5 -10.5q12 30 35 44.5t55 14.5q28 0 57.5 -12t58.5 -24t57 -12q30 0 59 10q-14 -27 -33.5 -41.5
t-50.5 -14.5z" />
    <glyph glyph-name="Ograve" unicode="&#xd2;" horiz-adv-x="655" 
d="M242 -87q-58 0 -106 30.5t-76 86.5t-28 134q0 77 24 155.5t66 150t98 128t119.5 89t130.5 32.5q10 0 29.5 -4t38.5 -24q-6 1 -13.5 1.5t-15.5 0.5q-52 0 -105 -32.5t-101 -87.5t-85.5 -124.5t-59.5 -144.5t-22 -146q0 -52 14 -97t45 -72.5t82 -27.5q55 0 103 33t87 88.5
t67 124t43 141t15 138.5q0 29 -4 62.5t-13.5 57.5t-27.5 24q-17 0 -37 -21.5t-39 -54.5t-33.5 -69.5t-20.5 -65.5q-34 7 -48.5 22t-14.5 36q0 27 19 60t49.5 63.5t64 50.5t62.5 20q30 0 48.5 -21.5t28.5 -55.5t14 -72.5t4 -71.5q0 -102 -25 -186.5t-67.5 -149.5t-95 -110
t-108 -68t-106.5 -23zM543 748q-23 28 -49.5 53.5t-67.5 56.5q2 20 11.5 29.5t20.5 9.5q15 0 34 -13.5t36.5 -33.5t28.5 -38.5t11 -27.5q0 -7 -6.5 -19t-18.5 -17z" />
    <glyph glyph-name="Oacute" unicode="&#xd3;" horiz-adv-x="655" 
d="M242 -87q-58 0 -106 30.5t-76 86.5t-28 134q0 77 24 155.5t66 150t98 128t119.5 89t130.5 32.5q10 0 29.5 -4t38.5 -24q-6 1 -13.5 1.5t-15.5 0.5q-52 0 -105 -32.5t-101 -87.5t-85.5 -124.5t-59.5 -144.5t-22 -146q0 -52 14 -97t45 -72.5t82 -27.5q55 0 103 33t87 88.5
t67 124t43 141t15 138.5q0 29 -4 62.5t-13.5 57.5t-27.5 24q-17 0 -37 -21.5t-39 -54.5t-33.5 -69.5t-20.5 -65.5q-34 7 -48.5 22t-14.5 36q0 27 19 60t49.5 63.5t64 50.5t62.5 20q30 0 48.5 -21.5t28.5 -55.5t14 -72.5t4 -71.5q0 -102 -25 -186.5t-67.5 -149.5t-95 -110
t-108 -68t-106.5 -23zM551 748q-13 5 -18.5 16.5t-5.5 16.5q0 8 10 26.5t26 39t33.5 35t33.5 14.5q11 0 19.5 -7.5t10.5 -27.5q-35 -34 -61.5 -59.5t-47.5 -53.5z" />
    <glyph glyph-name="Ocircumflex" unicode="&#xd4;" horiz-adv-x="655" 
d="M242 -87q-58 0 -106 30.5t-76 86.5t-28 134q0 77 24 155.5t66 150t98 128t119.5 89t130.5 32.5q10 0 29.5 -4t38.5 -24q-6 1 -13.5 1.5t-15.5 0.5q-52 0 -105 -32.5t-101 -87.5t-85.5 -124.5t-59.5 -144.5t-22 -146q0 -52 14 -97t45 -72.5t82 -27.5q55 0 103 33t87 88.5
t67 124t43 141t15 138.5q0 29 -4 62.5t-13.5 57.5t-27.5 24q-17 0 -37 -21.5t-39 -54.5t-33.5 -69.5t-20.5 -65.5q-34 7 -48.5 22t-14.5 36q0 27 19 60t49.5 63.5t64 50.5t62.5 20q30 0 48.5 -21.5t28.5 -55.5t14 -72.5t4 -71.5q0 -102 -25 -186.5t-67.5 -149.5t-95 -110
t-108 -68t-106.5 -23zM640 744q-16 27 -33.5 45.5t-38.5 37.5q-27 -9 -51.5 -22t-50.5 -30q-7 5 -10 14t-3 14q0 15 13.5 30t33.5 27.5t39 20.5t30 8q12 0 28.5 -10.5t32 -27t25.5 -35t10 -33.5q0 -10 -5.5 -21t-19.5 -18z" />
    <glyph glyph-name="Otilde" unicode="&#xd5;" horiz-adv-x="655" 
d="M242 -87q-58 0 -106 30.5t-76 86.5t-28 134q0 77 24 155.5t66 150t98 128t119.5 89t130.5 32.5q10 0 29.5 -4t38.5 -24q-6 1 -13.5 1.5t-15.5 0.5q-52 0 -105 -32.5t-101 -87.5t-85.5 -124.5t-59.5 -144.5t-22 -146q0 -52 14 -97t45 -72.5t82 -27.5q55 0 103 33t87 88.5
t67 124t43 141t15 138.5q0 29 -4 62.5t-13.5 57.5t-27.5 24q-17 0 -37 -21.5t-39 -54.5t-33.5 -69.5t-20.5 -65.5q-34 7 -48.5 22t-14.5 36q0 27 19 60t49.5 63.5t64 50.5t62.5 20q30 0 48.5 -21.5t28.5 -55.5t14 -72.5t4 -71.5q0 -102 -25 -186.5t-67.5 -149.5t-95 -110
t-108 -68t-106.5 -23zM623 755q-28 0 -58 12t-59.5 24t-55.5 12q-17 0 -32.5 -2.5t-32.5 -10.5q12 30 35 44.5t55 14.5q28 0 57.5 -12t58.5 -24t57 -12q30 0 59 10q-14 -27 -33.5 -41.5t-50.5 -14.5z" />
    <glyph glyph-name="Odieresis" unicode="&#xd6;" horiz-adv-x="655" 
d="M242 -87q-58 0 -106 30.5t-76 86.5t-28 134q0 77 24 155.5t66 150t98 128t119.5 89t130.5 32.5q10 0 29.5 -4t38.5 -24q-6 1 -13.5 1.5t-15.5 0.5q-52 0 -105 -32.5t-101 -87.5t-85.5 -124.5t-59.5 -144.5t-22 -146q0 -52 14 -97t45 -72.5t82 -27.5q55 0 103 33t87 88.5
t67 124t43 141t15 138.5q0 29 -4 62.5t-13.5 57.5t-27.5 24q-17 0 -37 -21.5t-39 -54.5t-33.5 -69.5t-20.5 -65.5q-34 7 -48.5 22t-14.5 36q0 27 19 60t49.5 63.5t64 50.5t62.5 20q30 0 48.5 -21.5t28.5 -55.5t14 -72.5t4 -71.5q0 -102 -25 -186.5t-67.5 -149.5t-95 -110
t-108 -68t-106.5 -23zM623 753q-16 0 -29 8.5t-13 25.5q0 20 22.5 34t44.5 14q15 0 26 -7t11 -26q0 -17 -19.5 -33t-42.5 -16zM479 773q-16 0 -29.5 8t-13.5 26q0 19 22.5 33.5t44.5 14.5q16 0 26 -7t10 -25q0 -17 -18.5 -33.5t-41.5 -16.5z" />
    <glyph glyph-name="multiply" unicode="&#xd7;" horiz-adv-x="405" 
d="M325 20q-22 16 -64 48t-83 72q-19 -18 -37 -36.5t-35.5 -38.5t-37.5 -46q-10 16 -10 27q0 26 24 59.5t58 70.5q-30 31 -49 58.5t-19 50.5q0 5 1.5 11t7.5 18q24 -31 46.5 -54.5t48.5 -49.5q38 35 75.5 66t57.5 46q-6 -47 -24.5 -75t-38.5 -45l-30 -27l49 -45
q15 -14 33 -41.5t27 -68.5z" />
    <glyph glyph-name="Oslash" unicode="&#xd8;" horiz-adv-x="654" 
d="M70 -101q-8 0 -17.5 1.5t-20.5 3.5q20 13 38 28.5t34 33.5q-34 32 -54 82t-20 118q0 76 24.5 154t67 149.5t97.5 127.5t117 88.5t124 32.5q18 0 34.5 -4.5t28.5 -21.5h-14q-52 0 -105.5 -32.5t-101.5 -88t-85.5 -125t-59.5 -144t-22 -144.5q0 -35 6.5 -69.5t19.5 -60.5
q40 49 85 108.5t91 123.5t89.5 127t80.5 118.5l65 97.5q-5 13 -11 19.5t-15 6.5q-17 0 -37.5 -22t-39.5 -55.5t-33.5 -69.5t-20.5 -64q-33 8 -47.5 23t-14.5 35q0 27 19.5 60t49.5 63.5t63 50.5t60 20q17 0 31 -7.5t24 -20.5q8 11 33 20t48 9q5 0 10.5 -0.5t18.5 -2.5
q-10 -13 -28 -39t-48 -70q6 -26 8 -52.5t2 -50.5q0 -105 -25.5 -190.5t-68 -151.5t-95 -111t-107.5 -68t-105 -23q-24 0 -45 5t-41 13q-24 -16 -47 -23.5t-40 -7.5zM273 -40q57 0 106 33.5t88 89.5t67 126t42.5 144.5t14.5 143.5q-33 -47 -72 -102l-78 -110t-73.5 -103.5
t-60 -84.5t-36.5 -51q-15 -20 -30 -38.5t-30 -32.5q13 -7 28 -11t34 -4z" />
    <glyph glyph-name="Ugrave" unicode="&#xd9;" horiz-adv-x="750" 
d="M588 -99q-37 0 -63.5 33t-26.5 79q0 8 0.5 22t1.5 30q-36 -67 -88 -110t-125 -43q-67 0 -104.5 40t-37.5 112q0 44 12 95.5t30 106.5t36 110.5t30 109.5t12 102q0 90 -54 90q-27 0 -46 -17t-31.5 -42.5t-18.5 -51.5t-6 -44q0 -15 4 -32.5t9 -31.5q-48 0 -68.5 22
t-20.5 55q0 31 15 63t42.5 59.5t64.5 44t80 16.5q61 0 88.5 -35t27.5 -94q0 -37 -9 -82t-23 -93t-28 -93q-25 -81 -41 -140.5t-16 -106.5q0 -46 19 -77.5t64 -31.5q41 0 75 25.5t59.5 66t43.5 85.5t27 84q14 59 31 126t35.5 132t37.5 118t37.5 84.5t36.5 31.5
q10 0 27.5 -10.5t36.5 -28.5q-9 -7 -26 -42t-38 -90t-42.5 -121t-39 -135.5t-28.5 -133.5t-11 -114q0 -62 21 -82t73 -20q-11 -19 -37 -30t-48 -11zM514 748q-23 28 -49.5 53.5t-67.5 56.5q2 20 11.5 29.5t20.5 9.5q15 0 34 -13.5t36.5 -33.5t28.5 -38.5t11 -27.5
q0 -7 -6.5 -19t-18.5 -17z" />
    <glyph glyph-name="Uacute" unicode="&#xda;" horiz-adv-x="750" 
d="M588 -99q-37 0 -63.5 33t-26.5 79q0 8 0.5 22t1.5 30q-36 -67 -88 -110t-125 -43q-67 0 -104.5 40t-37.5 112q0 44 12 95.5t30 106.5t36 110.5t30 109.5t12 102q0 90 -54 90q-27 0 -46 -17t-31.5 -42.5t-18.5 -51.5t-6 -44q0 -15 4 -32.5t9 -31.5q-48 0 -68.5 22
t-20.5 55q0 31 15 63t42.5 59.5t64.5 44t80 16.5q61 0 88.5 -35t27.5 -94q0 -37 -9 -82t-23 -93t-28 -93q-25 -81 -41 -140.5t-16 -106.5q0 -46 19 -77.5t64 -31.5q41 0 75 25.5t59.5 66t43.5 85.5t27 84q14 59 31 126t35.5 132t37.5 118t37.5 84.5t36.5 31.5
q10 0 27.5 -10.5t36.5 -28.5q-9 -7 -26 -42t-38 -90t-42.5 -121t-39 -135.5t-28.5 -133.5t-11 -114q0 -62 21 -82t73 -20q-11 -19 -37 -30t-48 -11zM522 748q-13 5 -18.5 16.5t-5.5 16.5q0 8 10 26.5t26 39t33.5 35t33.5 14.5q11 0 19.5 -7.5t10.5 -27.5
q-35 -34 -61.5 -59.5t-47.5 -53.5z" />
    <glyph glyph-name="Ucircumflex" unicode="&#xdb;" horiz-adv-x="750" 
d="M588 -99q-37 0 -63.5 33t-26.5 79q0 8 0.5 22t1.5 30q-36 -67 -88 -110t-125 -43q-67 0 -104.5 40t-37.5 112q0 44 12 95.5t30 106.5t36 110.5t30 109.5t12 102q0 90 -54 90q-27 0 -46 -17t-31.5 -42.5t-18.5 -51.5t-6 -44q0 -15 4 -32.5t9 -31.5q-48 0 -68.5 22
t-20.5 55q0 31 15 63t42.5 59.5t64.5 44t80 16.5q61 0 88.5 -35t27.5 -94q0 -37 -9 -82t-23 -93t-28 -93q-25 -81 -41 -140.5t-16 -106.5q0 -46 19 -77.5t64 -31.5q41 0 75 25.5t59.5 66t43.5 85.5t27 84q14 59 31 126t35.5 132t37.5 118t37.5 84.5t36.5 31.5
q10 0 27.5 -10.5t36.5 -28.5q-9 -7 -26 -42t-38 -90t-42.5 -121t-39 -135.5t-28.5 -133.5t-11 -114q0 -62 21 -82t73 -20q-11 -19 -37 -30t-48 -11zM611 744q-16 27 -33.5 45.5t-38.5 37.5q-27 -9 -51.5 -22t-50.5 -30q-7 5 -10 14t-3 14q0 15 13.5 30t33.5 27.5t39 20.5
t30 8q12 0 28.5 -10.5t32 -27t25.5 -35t10 -33.5q0 -10 -5.5 -21t-19.5 -18z" />
    <glyph glyph-name="Udieresis" unicode="&#xdc;" horiz-adv-x="750" 
d="M588 -99q-37 0 -63.5 33t-26.5 79q0 8 0.5 22t1.5 30q-36 -67 -88 -110t-125 -43q-67 0 -104.5 40t-37.5 112q0 44 12 95.5t30 106.5t36 110.5t30 109.5t12 102q0 90 -54 90q-27 0 -46 -17t-31.5 -42.5t-18.5 -51.5t-6 -44q0 -15 4 -32.5t9 -31.5q-48 0 -68.5 22
t-20.5 55q0 31 15 63t42.5 59.5t64.5 44t80 16.5q61 0 88.5 -35t27.5 -94q0 -37 -9 -82t-23 -93t-28 -93q-25 -81 -41 -140.5t-16 -106.5q0 -46 19 -77.5t64 -31.5q41 0 75 25.5t59.5 66t43.5 85.5t27 84q14 59 31 126t35.5 132t37.5 118t37.5 84.5t36.5 31.5
q10 0 27.5 -10.5t36.5 -28.5q-9 -7 -26 -42t-38 -90t-42.5 -121t-39 -135.5t-28.5 -133.5t-11 -114q0 -62 21 -82t73 -20q-11 -19 -37 -30t-48 -11zM594 753q-16 0 -29 8.5t-13 25.5q0 20 22.5 34t44.5 14q15 0 26 -7t11 -26q0 -17 -19.5 -33t-42.5 -16zM450 773
q-16 0 -29.5 8t-13.5 26q0 19 22.5 33.5t44.5 14.5q16 0 26 -7t10 -25q0 -17 -18.5 -33.5t-41.5 -16.5z" />
    <glyph glyph-name="Yacute" unicode="&#xdd;" horiz-adv-x="706" 
d="M286 -187q-61 0 -102.5 25.5t-41.5 73.5q0 31 19.5 56t56.5 33q-6 -27 -8.5 -41t-2.5 -27q0 -40 22 -62.5t69 -22.5q34 0 60.5 11.5t47 32t36 47.5t27 58.5t19.5 64.5q16 64 25 125.5t21 99.5q-39 -63 -90 -102.5t-119 -39.5q-67 0 -95 37t-28 91q0 37 9.5 80.5t22.5 89
t22.5 88t9.5 75.5q0 30 -11.5 51t-42.5 21q-27 0 -46.5 -15.5t-32 -40.5t-18.5 -53t-6 -54q0 -16 2.5 -27t9.5 -29q-49 0 -69 22.5t-20 54.5q0 30 15 62.5t42.5 60t64.5 44.5t80 17q40 0 66 -15t38.5 -40t12.5 -55q0 -22 -7 -53t-21 -82t-25 -96.5t-11 -85.5q0 -42 16 -68
t55 -26q34 0 64.5 19.5t57.5 53t49 76.5t38 91q13 38 26.5 85.5t29 92.5t33 74t37.5 29q11 0 30.5 -10t37.5 -28q-22 -33 -37.5 -63t-29 -65t-27.5 -82.5t-31 -115t-40 -163.5q-13 -52 -29.5 -105.5t-40 -102.5t-56.5 -88t-78 -61.5t-106 -22.5zM513 748q-13 5 -18.5 16.5
t-5.5 16.5q0 8 10 26.5t26 39t33.5 35t33.5 14.5q11 0 19.5 -7.5t10.5 -27.5q-35 -34 -61.5 -59.5t-47.5 -53.5z" />
    <glyph glyph-name="Thorn" unicode="&#xde;" horiz-adv-x="543" 
d="M133 -87q-30 0 -57 16t-27 41q0 11 4.5 27t8.5 29q40 124 84 253.5t96 262.5q-39 -7 -68.5 -20t-48.5 -23.5t-26 -10.5q-5 0 -15 6.5t-17.5 16t-7.5 16.5q36 14 89 31.5t111 22.5q8 18 16 41t19 44.5t25 35.5t34 14q6 0 14 -3t18 -15q-13 -25 -26 -55t-25 -62
q43 -6 85 -20t77 -38.5t56 -59.5t21 -82q0 -55 -28 -94t-72.5 -64.5t-95.5 -40.5t-98.5 -22t-79.5 -8q-19 -63 -34.5 -124.5t-31.5 -114.5zM208 186q53 7 103.5 23.5t91 43t64.5 64t24 85.5q0 50 -25 81t-64 46t-82 17q-31 -83 -58.5 -174t-53.5 -186z" />
    <glyph glyph-name="germandbls" unicode="&#xdf;" horiz-adv-x="471" 
d="M-43 -115q14 19 25.5 64t21.5 108.5t21.5 137t26.5 148.5t36 143.5t49.5 122.5t67.5 85.5t91 31.5q50 0 84.5 -30.5t34.5 -87.5q0 -50 -26.5 -94.5t-65.5 -79.5t-78 -58q48 -14 81 -46.5t50 -76t17 -92.5q0 -43 -13 -86.5t-37 -78.5t-56 -56.5t-71 -21.5
q-38 0 -59.5 20.5t-29.5 51.5t-8 63q0 33 7 61.5t22 46t38 17.5q5 0 12.5 -0.5t26.5 -4.5q-14 -7 -25.5 -29t-18.5 -53t-7 -65q0 -29 7 -51.5t25 -22.5q16 0 34.5 18.5t34.5 50t26.5 69t10.5 74.5q0 53 -22 101t-61 80q-7 5 -15.5 14t-8.5 19t8.5 19.5t18.5 17.5
q25 22 51.5 49.5t44.5 63t18 80.5q0 18 -4.5 35.5t-17 29.5t-36.5 12q-38 0 -65 -31.5t-45.5 -85t-32.5 -121t-26 -140.5t-25.5 -143.5t-31 -129.5t-43 -98.5t-62.5 -50.5z" />
    <glyph glyph-name="agrave" unicode="&#xe0;" horiz-adv-x="444" 
d="M56 -47q-33 0 -57.5 22t-24.5 66q0 35 16 76t44 81t64 72.5t77 52.5t82 20q43 0 73 -22t30 -58q0 -27 -19 -39t-45 -7q2 9 3.5 18t1.5 19q0 20 -8 36t-34 16q-28 0 -57 -19t-55.5 -49.5t-47.5 -67t-33 -71.5t-12 -63q0 -32 23 -32t51 22.5t56.5 56.5t54.5 69.5t45 60.5
q3 5 8 5q4 -1 15.5 -4.5t21.5 -10.5t10 -18q0 -10 -8.5 -25.5t-20 -34t-20 -37t-8.5 -35.5q0 -13 7 -24.5t23 -11.5q24 0 67.5 35.5t88.5 120.5l19 -19q-24 -54 -57.5 -95.5t-70.5 -65t-75 -23.5q-41 0 -61 26t-22 56v3v2q-40 -48 -73.5 -76t-71.5 -28zM331 409
q-23 28 -49.5 53.5t-67.5 56.5q2 20 11.5 29.5t20.5 9.5q15 0 34 -13.5t36.5 -33.5t28.5 -38.5t11 -27.5q0 -7 -6.5 -19t-18.5 -17z" />
    <glyph glyph-name="aacute" unicode="&#xe1;" horiz-adv-x="444" 
d="M56 -47q-33 0 -57.5 22t-24.5 66q0 35 16 76t44 81t64 72.5t77 52.5t82 20q43 0 73 -22t30 -58q0 -27 -19 -39t-45 -7q2 9 3.5 18t1.5 19q0 20 -8 36t-34 16q-28 0 -57 -19t-55.5 -49.5t-47.5 -67t-33 -71.5t-12 -63q0 -32 23 -32t51 22.5t56.5 56.5t54.5 69.5t45 60.5
q3 5 8 5q4 -1 15.5 -4.5t21.5 -10.5t10 -18q0 -10 -8.5 -25.5t-20 -34t-20 -37t-8.5 -35.5q0 -13 7 -24.5t23 -11.5q24 0 67.5 35.5t88.5 120.5l19 -19q-24 -54 -57.5 -95.5t-70.5 -65t-75 -23.5q-41 0 -61 26t-22 56v3v2q-40 -48 -73.5 -76t-71.5 -28zM306 410
q-13 5 -18.5 16.5t-5.5 16.5q0 8 10 26.5t26 39t33.5 35t33.5 14.5q11 0 19.5 -7.5t10.5 -27.5q-35 -34 -61.5 -59.5t-47.5 -53.5z" />
    <glyph glyph-name="acircumflex" unicode="&#xe2;" horiz-adv-x="444" 
d="M56 -47q-33 0 -57.5 22t-24.5 66q0 35 16 76t44 81t64 72.5t77 52.5t82 20q43 0 73 -22t30 -58q0 -27 -19 -39t-45 -7q2 9 3.5 18t1.5 19q0 20 -8 36t-34 16q-28 0 -57 -19t-55.5 -49.5t-47.5 -67t-33 -71.5t-12 -63q0 -32 23 -32t51 22.5t56.5 56.5t54.5 69.5t45 60.5
q3 5 8 5q4 -1 15.5 -4.5t21.5 -10.5t10 -18q0 -10 -8.5 -25.5t-20 -34t-20 -37t-8.5 -35.5q0 -13 7 -24.5t23 -11.5q24 0 67.5 35.5t88.5 120.5l19 -19q-24 -54 -57.5 -95.5t-70.5 -65t-75 -23.5q-41 0 -61 26t-22 56v3v2q-40 -48 -73.5 -76t-71.5 -28zM395 402
q-16 27 -33.5 45.5t-38.5 37.5q-27 -9 -51.5 -22t-50.5 -30q-7 5 -10 14t-3 14q0 15 13.5 30t33.5 27.5t39 20.5t30 8q12 0 28.5 -10.5t32 -27t25.5 -35t10 -33.5q0 -10 -5.5 -21t-19.5 -18z" />
    <glyph glyph-name="atilde" unicode="&#xe3;" horiz-adv-x="444" 
d="M56 -47q-33 0 -57.5 22t-24.5 66q0 35 16 76t44 81t64 72.5t77 52.5t82 20q43 0 73 -22t30 -58q0 -27 -19 -39t-45 -7q2 9 3.5 18t1.5 19q0 20 -8 36t-34 16q-28 0 -57 -19t-55.5 -49.5t-47.5 -67t-33 -71.5t-12 -63q0 -32 23 -32t51 22.5t56.5 56.5t54.5 69.5t45 60.5
q3 5 8 5q4 -1 15.5 -4.5t21.5 -10.5t10 -18q0 -10 -8.5 -25.5t-20 -34t-20 -37t-8.5 -35.5q0 -13 7 -24.5t23 -11.5q24 0 67.5 35.5t88.5 120.5l19 -19q-24 -54 -57.5 -95.5t-70.5 -65t-75 -23.5q-41 0 -61 26t-22 56v3v2q-40 -48 -73.5 -76t-71.5 -28zM403 397
q-28 0 -58 12t-59.5 24t-55.5 12q-17 0 -32.5 -2.5t-32.5 -10.5q12 30 35 44.5t55 14.5q28 0 57.5 -12t58.5 -24t57 -12q30 0 59 10q-14 -27 -33.5 -41.5t-50.5 -14.5z" />
    <glyph glyph-name="adieresis" unicode="&#xe4;" horiz-adv-x="444" 
d="M56 -47q-33 0 -57.5 22t-24.5 66q0 35 16 76t44 81t64 72.5t77 52.5t82 20q43 0 73 -22t30 -58q0 -27 -19 -39t-45 -7q2 9 3.5 18t1.5 19q0 20 -8 36t-34 16q-28 0 -57 -19t-55.5 -49.5t-47.5 -67t-33 -71.5t-12 -63q0 -32 23 -32t51 22.5t56.5 56.5t54.5 69.5t45 60.5
q3 5 8 5q4 -1 15.5 -4.5t21.5 -10.5t10 -18q0 -10 -8.5 -25.5t-20 -34t-20 -37t-8.5 -35.5q0 -13 7 -24.5t23 -11.5q24 0 67.5 35.5t88.5 120.5l19 -19q-24 -54 -57.5 -95.5t-70.5 -65t-75 -23.5q-41 0 -61 26t-22 56v3v2q-40 -48 -73.5 -76t-71.5 -28zM375 417
q-16 0 -29 8.5t-13 25.5q0 20 22.5 34t44.5 14q15 0 26 -7t11 -26q0 -17 -19.5 -33t-42.5 -16zM231 437q-16 0 -29.5 8t-13.5 26q0 19 22.5 33.5t44.5 14.5q16 0 26 -7t10 -25q0 -17 -18.5 -33.5t-41.5 -16.5z" />
    <glyph glyph-name="aring" unicode="&#xe5;" horiz-adv-x="444" 
d="M56 -47q-33 0 -57.5 22t-24.5 66q0 35 16 76t44 81t64 72.5t77 52.5t82 20q43 0 73 -22t30 -58q0 -27 -19 -39t-45 -7q2 9 3.5 18t1.5 19q0 20 -8 36t-34 16q-28 0 -57 -19t-55.5 -49.5t-47.5 -67t-33 -71.5t-12 -63q0 -32 23 -32t51 22.5t56.5 56.5t54.5 69.5t45 60.5
q3 5 8 5q4 -1 15.5 -4.5t21.5 -10.5t10 -18q0 -10 -8.5 -25.5t-20 -34t-20 -37t-8.5 -35.5q0 -13 7 -24.5t23 -11.5q24 0 67.5 35.5t88.5 120.5l19 -19q-24 -54 -57.5 -95.5t-70.5 -65t-75 -23.5q-41 0 -61 26t-22 56v3v2q-40 -48 -73.5 -76t-71.5 -28zM321 398
q-40 0 -59 16.5t-19 40.5q0 23 16 48.5t44 43t64 17.5q44 0 63 -17t19 -40t-17 -48.5t-46 -43t-65 -17.5zM329 433q18 0 33.5 11t25.5 26.5t10 29.5q0 10 -8 18t-27 8q-17 0 -33 -10.5t-25.5 -25.5t-9.5 -29q1 -9 9 -18.5t25 -9.5z" />
    <glyph glyph-name="ae" unicode="&#xe6;" horiz-adv-x="556" 
d="M58 -47q-34 0 -59 22t-25 66q0 35 16 76t44 81t64.5 73t77.5 53t83 20q27 0 45.5 -10t27.5 -27q31 23 65.5 38t66.5 15q26 0 48.5 -13t22.5 -53q0 -38 -22 -71t-59 -59t-81.5 -42.5t-89.5 -21.5q-1 -7 -1.5 -14.5t-0.5 -13.5q2 -26 17.5 -49.5t59.5 -23.5q43 0 85 23.5
t78 63t61 86.5l19 -16q-27 -61 -69.5 -106t-92.5 -69.5t-102 -24.5q-58 0 -91.5 29t-40.5 71q-40 -49 -75 -76t-72 -27zM80 8q26 0 59.5 29t64.5 68q7 44 32.5 89.5t62.5 81.5q-4 12 -14 19.5t-28 7.5q-28 0 -56.5 -18.5t-54 -48.5t-45.5 -65t-31.5 -70t-11.5 -62
q0 -31 22 -31zM293 137q27 10 59 26.5t61 38t47 46.5t18 53q0 7 -3.5 10.5t-12.5 3.5q-22 0 -47 -15.5t-48.5 -41.5t-43 -57.5t-30.5 -63.5z" />
    <glyph glyph-name="ccedilla" unicode="&#xe7;" horiz-adv-x="333" 
d="M113 -56q-52 0 -85.5 32.5t-33.5 99.5q0 49 19 96t51 84.5t71.5 59.5t80.5 22q42 0 60.5 -21t18.5 -49t-13.5 -54.5t-36.5 -26.5q-19 0 -31 19q10 7 21 26t11 49q0 8 -4 12.5t-15 4.5q-25 0 -52.5 -22.5t-51 -58t-38 -75t-14.5 -72.5q0 -28 14.5 -51.5t56.5 -23.5
q38 0 79 22t77 61.5t58 94.5l20 -18q-24 -61 -66.5 -108.5t-94 -75t-102.5 -27.5zM189 -233q-30 0 -48 13.5t-18 27.5q0 9 8 20.5t24 22.5q8 -25 18.5 -35t21.5 -10q17 0 35.5 14.5t32 34t13.5 34.5q0 8 -4.5 12t-11.5 4q-12 0 -27 -9t-29 -18.5t-23 -9.5t-15 9t-6 16
q0 2 9 15t23 31.5t28 35.5t24 25h16l-47 -75q8 3 23 7.5t31 4.5q23 0 38.5 -12.5t15.5 -37.5q0 -27 -18.5 -54.5t-48.5 -46.5t-65 -19z" />
    <glyph glyph-name="egrave" unicode="&#xe8;" horiz-adv-x="341" 
d="M116 -44q-64 0 -98.5 34.5t-34.5 86.5q0 44 22.5 93.5t60.5 93t84 70.5t92 27q26 0 49.5 -13.5t23.5 -53.5q0 -38 -22 -71t-59 -59t-81.5 -42.5t-89.5 -21.5q-1 -4 -1.5 -8.5t-0.5 -14.5q0 -5 1.5 -17.5t8.5 -26.5t23 -24t44 -10q42 0 84.5 23.5t80 62.5t62.5 87l20 -16
q-27 -60 -69.5 -105t-94 -70t-105.5 -25zM74 137q26 3 58 18t61.5 38t48.5 50.5t19 55.5q0 11 -4 15t-13 4q-23 0 -48 -16.5t-49 -43t-43 -58.5t-30 -63zM313 418q-23 28 -49.5 53.5t-67.5 56.5q2 20 11.5 29.5t20.5 9.5q15 0 34 -13.5t36.5 -33.5t28.5 -38.5t11 -27.5
q0 -7 -6.5 -19t-18.5 -17z" />
    <glyph glyph-name="eacute" unicode="&#xe9;" horiz-adv-x="341" 
d="M116 -44q-64 0 -98.5 34.5t-34.5 86.5q0 44 22.5 93.5t60.5 93t84 70.5t92 27q26 0 49.5 -13.5t23.5 -53.5q0 -38 -22 -71t-59 -59t-81.5 -42.5t-89.5 -21.5q-1 -4 -1.5 -8.5t-0.5 -14.5q0 -5 1.5 -17.5t8.5 -26.5t23 -24t44 -10q42 0 84.5 23.5t80 62.5t62.5 87l20 -16
q-27 -60 -69.5 -105t-94 -70t-105.5 -25zM74 137q26 3 58 18t61.5 38t48.5 50.5t19 55.5q0 11 -4 15t-13 4q-23 0 -48 -16.5t-49 -43t-43 -58.5t-30 -63zM288 419q-13 5 -18.5 16.5t-5.5 16.5q0 8 10 26.5t26 39t33.5 35t33.5 14.5q11 0 19.5 -7.5t10.5 -27.5
q-35 -34 -61.5 -59.5t-47.5 -53.5z" />
    <glyph glyph-name="ecircumflex" unicode="&#xea;" horiz-adv-x="341" 
d="M116 -44q-64 0 -98.5 34.5t-34.5 86.5q0 44 22.5 93.5t60.5 93t84 70.5t92 27q26 0 49.5 -13.5t23.5 -53.5q0 -38 -22 -71t-59 -59t-81.5 -42.5t-89.5 -21.5q-1 -4 -1.5 -8.5t-0.5 -14.5q0 -5 1.5 -17.5t8.5 -26.5t23 -24t44 -10q42 0 84.5 23.5t80 62.5t62.5 87l20 -16
q-27 -60 -69.5 -105t-94 -70t-105.5 -25zM74 137q26 3 58 18t61.5 38t48.5 50.5t19 55.5q0 11 -4 15t-13 4q-23 0 -48 -16.5t-49 -43t-43 -58.5t-30 -63zM377 411q-16 27 -33.5 45.5t-38.5 37.5q-27 -9 -51.5 -22t-50.5 -30q-7 5 -10 14t-3 14q0 15 13.5 30t33.5 27.5
t39 20.5t30 8q12 0 28.5 -10.5t32 -27t25.5 -35t10 -33.5q0 -10 -5.5 -21t-19.5 -18z" />
    <glyph glyph-name="edieresis" unicode="&#xeb;" horiz-adv-x="341" 
d="M116 -44q-64 0 -98.5 34.5t-34.5 86.5q0 44 22.5 93.5t60.5 93t84 70.5t92 27q26 0 49.5 -13.5t23.5 -53.5q0 -38 -22 -71t-59 -59t-81.5 -42.5t-89.5 -21.5q-1 -4 -1.5 -8.5t-0.5 -14.5q0 -5 1.5 -17.5t8.5 -26.5t23 -24t44 -10q42 0 84.5 23.5t80 62.5t62.5 87l20 -16
q-27 -60 -69.5 -105t-94 -70t-105.5 -25zM74 137q26 3 58 18t61.5 38t48.5 50.5t19 55.5q0 11 -4 15t-13 4q-23 0 -48 -16.5t-49 -43t-43 -58.5t-30 -63zM357 426q-16 0 -29 8.5t-13 25.5q0 20 22.5 34t44.5 14q15 0 26 -7t11 -26q0 -17 -19.5 -33t-42.5 -16zM213 446
q-16 0 -29.5 8t-13.5 26q0 19 22.5 33.5t44.5 14.5q16 0 26 -7t10 -25q0 -17 -18.5 -33.5t-41.5 -16.5z" />
    <glyph glyph-name="igrave" unicode="&#xec;" horiz-adv-x="244" 
d="M80 -30q-44 0 -66 26t-22 63q0 23 8 58t22.5 73.5t33.5 72.5t41 55.5t44 21.5q12 0 21 -7.5t9 -21.5q0 -13 -15.5 -39t-36 -60t-36 -70.5t-15.5 -69.5q0 -32 11.5 -42.5t33.5 -10.5q34 0 74 34t83 119l15 -16q-35 -88 -89 -137t-116 -49zM205 415q-23 28 -49.5 53.5
t-67.5 56.5q2 20 11.5 29.5t20.5 9.5q15 0 34 -13.5t36.5 -33.5t28.5 -38.5t11 -27.5q0 -7 -6.5 -19t-18.5 -17z" />
    <glyph glyph-name="iacute" unicode="&#xed;" horiz-adv-x="229" 
d="M80 -30q-44 0 -66 26t-22 63q0 23 8 58t22.5 73.5t33.5 72.5t41 55.5t44 21.5q12 0 21 -7.5t9 -21.5q0 -13 -15.5 -39t-36 -60t-36 -70.5t-15.5 -69.5q0 -32 11.5 -42.5t33.5 -10.5q34 0 74 34t83 119l15 -16q-35 -88 -89 -137t-116 -49zM193 410q-13 5 -18.5 16.5
t-5.5 16.5q0 8 10 26.5t26 39t33.5 35t33.5 14.5q11 0 19.5 -7.5t10.5 -27.5q-35 -34 -61.5 -59.5t-47.5 -53.5z" />
    <glyph glyph-name="icircumflex" unicode="&#xee;" horiz-adv-x="270" 
d="M80 -30q-44 0 -66 26t-22 63q0 23 8 58t22.5 73.5t33.5 72.5t41 55.5t44 21.5q12 0 21 -7.5t9 -21.5q0 -13 -15.5 -39t-36 -60t-36 -70.5t-15.5 -69.5q0 -32 11.5 -42.5t33.5 -10.5q34 0 74 34t83 119l15 -16q-35 -88 -89 -137t-116 -49zM286 402q-16 27 -33.5 45.5
t-38.5 37.5q-27 -9 -51.5 -22t-50.5 -30q-7 5 -10 14t-3 14q0 15 13.5 30t33.5 27.5t39 20.5t30 8q12 0 28.5 -10.5t32 -27t25.5 -35t10 -33.5q0 -10 -5.5 -21t-19.5 -18z" />
    <glyph glyph-name="idieresis" unicode="&#xef;" horiz-adv-x="228" 
d="M80 -30q-44 0 -66 26t-22 63q0 23 8 58t22.5 73.5t33.5 72.5t41 55.5t44 21.5q12 0 21 -7.5t9 -21.5q0 -13 -15.5 -39t-36 -60t-36 -70.5t-15.5 -69.5q0 -32 11.5 -42.5t33.5 -10.5q34 0 74 34t83 119l15 -16q-35 -88 -89 -137t-116 -49zM246 415q-16 0 -29 8.5t-13 25.5
q0 20 22.5 34t44.5 14q15 0 26 -7t11 -26q0 -17 -19.5 -33t-42.5 -16zM102 435q-16 0 -29.5 8t-13.5 26q0 19 22.5 33.5t44.5 14.5q16 0 26 -7t10 -25q0 -17 -18.5 -33.5t-41.5 -16.5z" />
    <glyph glyph-name="eth" unicode="&#xf0;" horiz-adv-x="488" 
d="M59 -30q-28 0 -53 21.5t-25 66.5q0 34 16 75t43.5 82.5t62.5 75.5t74 55t78 21q30 0 45.5 -12t15.5 -29q0 -6 -2 -12t-6 -14q-18 23 -49 23t-59.5 -18.5t-53 -48.5t-43 -64.5t-29 -67t-10.5 -55.5q0 -19 8 -30.5t23 -11.5q21 0 50 21t60 57.5t60.5 84t51.5 100.5
q20 47 31.5 94.5t11.5 93.5q0 11 -1 20t-3 23q-15 -2 -39.5 -7t-47.5 -10t-37 -9q0 27 15.5 41t41.5 21t55 11q-11 32 -34 63.5t-61 60.5q21 27 51 27q33 0 58.5 -20.5t44 -53t28.5 -68.5q24 2 55.5 6.5t50.5 10.5q-15 -25 -28.5 -37.5t-29 -17t-38.5 -7.5q2 -11 3 -20.5
t1 -22.5q0 -48 -16.5 -104.5t-37.5 -114.5t-37.5 -111t-16.5 -94q0 -17 5 -27t19 -10q21 0 49 18.5t56.5 52.5t49.5 79l19 -12q-23 -56 -57 -99.5t-72.5 -68t-77.5 -24.5q-41 0 -57 27t-16 61q0 19 3 38.5t6 35.5q-30 -44 -66 -82t-72 -61t-67 -23z" />
    <glyph glyph-name="ntilde" unicode="&#xf1;" horiz-adv-x="473" 
d="M337 -20q-39 0 -59.5 19.5t-20.5 49.5q0 20 7 42.5t14 45.5t7 44q0 22 -10.5 30.5t-24.5 8.5q-30 0 -61.5 -24.5t-61 -61.5t-55.5 -77t-45 -72q-19 0 -36 6.5t-29 22.5q1 5 11.5 30.5t23.5 61t23 74.5t10 71q7 8 21.5 16t30.5 8q35 0 35 -30q0 -12 -4.5 -35.5
t-12.5 -53.5q26 35 57 66t64.5 50.5t67.5 19.5q43 0 63.5 -29t20.5 -64q0 -30 -10 -56t-19.5 -49t-9.5 -45q0 -16 7.5 -22.5t16.5 -6.5q24 0 50 23t49.5 58.5t41.5 71.5l17 -14q-21 -49 -47.5 -89.5t-59 -65t-72.5 -24.5zM369 351q-28 0 -58 12t-59.5 24t-55.5 12
q-17 0 -32.5 -2.5t-32.5 -10.5q12 30 35 44.5t55 14.5q28 0 57.5 -12t58.5 -24t57 -12q30 0 59 10q-14 -27 -33.5 -41.5t-50.5 -14.5z" />
    <glyph glyph-name="ograve" unicode="&#xf2;" horiz-adv-x="372" 
d="M66 -32q-45 0 -61.5 29.5t-16.5 64.5q0 32 10 65.5t27.5 62.5t39 46.5t43.5 17.5q7 0 16.5 -2.5t13.5 -7.5q-12 -15 -24.5 -37t-23 -46.5t-16.5 -49.5t-6 -46q0 -20 7.5 -33t26.5 -13t45.5 21.5t50.5 49.5q-32 29 -46 63.5t-14 83.5q0 21 10.5 48t34 47t63.5 20
q43 0 60.5 -24t17.5 -57q0 -37 -19.5 -83t-46.5 -87q12 -6 28 -6q15 0 36 7t41 23.5t32 44.5l18 -13q-22 -51 -58.5 -74.5t-71.5 -23.5q-13 0 -26 2.5t-24 6.5q-34 -40 -78 -70t-89 -30zM224 122q24 35 41 75t17 74q0 23 -7 33.5t-21 10.5q-19 0 -39 -27t-20 -68
q0 -21 7.5 -51t21.5 -47zM308 423q-23 28 -49.5 53.5t-67.5 56.5q2 20 11.5 29.5t20.5 9.5q15 0 34 -13.5t36.5 -33.5t28.5 -38.5t11 -27.5q0 -7 -6.5 -19t-18.5 -17z" />
    <glyph glyph-name="oacute" unicode="&#xf3;" horiz-adv-x="372" 
d="M66 -32q-45 0 -61.5 29.5t-16.5 64.5q0 32 10 65.5t27.5 62.5t39 46.5t43.5 17.5q7 0 16.5 -2.5t13.5 -7.5q-12 -15 -24.5 -37t-23 -46.5t-16.5 -49.5t-6 -46q0 -20 7.5 -33t26.5 -13t45.5 21.5t50.5 49.5q-32 29 -46 63.5t-14 83.5q0 21 10.5 48t34 47t63.5 20
q43 0 60.5 -24t17.5 -57q0 -37 -19.5 -83t-46.5 -87q12 -6 28 -6q15 0 36 7t41 23.5t32 44.5l18 -13q-22 -51 -58.5 -74.5t-71.5 -23.5q-13 0 -26 2.5t-24 6.5q-34 -40 -78 -70t-89 -30zM224 122q24 35 41 75t17 74q0 23 -7 33.5t-21 10.5q-19 0 -39 -27t-20 -68
q0 -21 7.5 -51t21.5 -47zM283 424q-13 5 -18.5 16.5t-5.5 16.5q0 8 10 26.5t26 39t33.5 35t33.5 14.5q11 0 19.5 -7.5t10.5 -27.5q-35 -34 -61.5 -59.5t-47.5 -53.5z" />
    <glyph glyph-name="ocircumflex" unicode="&#xf4;" horiz-adv-x="372" 
d="M66 -32q-45 0 -61.5 29.5t-16.5 64.5q0 32 10 65.5t27.5 62.5t39 46.5t43.5 17.5q7 0 16.5 -2.5t13.5 -7.5q-12 -15 -24.5 -37t-23 -46.5t-16.5 -49.5t-6 -46q0 -20 7.5 -33t26.5 -13t45.5 21.5t50.5 49.5q-32 29 -46 63.5t-14 83.5q0 21 10.5 48t34 47t63.5 20
q43 0 60.5 -24t17.5 -57q0 -37 -19.5 -83t-46.5 -87q12 -6 28 -6q15 0 36 7t41 23.5t32 44.5l18 -13q-22 -51 -58.5 -74.5t-71.5 -23.5q-13 0 -26 2.5t-24 6.5q-34 -40 -78 -70t-89 -30zM224 122q24 35 41 75t17 74q0 23 -7 33.5t-21 10.5q-19 0 -39 -27t-20 -68
q0 -21 7.5 -51t21.5 -47zM372 416q-16 27 -33.5 45.5t-38.5 37.5q-27 -9 -51.5 -22t-50.5 -30q-7 5 -10 14t-3 14q0 15 13.5 30t33.5 27.5t39 20.5t30 8q12 0 28.5 -10.5t32 -27t25.5 -35t10 -33.5q0 -10 -5.5 -21t-19.5 -18z" />
    <glyph glyph-name="otilde" unicode="&#xf5;" horiz-adv-x="372" 
d="M66 -32q-45 0 -61.5 29.5t-16.5 64.5q0 32 10 65.5t27.5 62.5t39 46.5t43.5 17.5q7 0 16.5 -2.5t13.5 -7.5q-12 -15 -24.5 -37t-23 -46.5t-16.5 -49.5t-6 -46q0 -20 7.5 -33t26.5 -13t45.5 21.5t50.5 49.5q-32 29 -46 63.5t-14 83.5q0 21 10.5 48t34 47t63.5 20
q43 0 60.5 -24t17.5 -57q0 -37 -19.5 -83t-46.5 -87q12 -6 28 -6q15 0 36 7t41 23.5t32 44.5l18 -13q-22 -51 -58.5 -74.5t-71.5 -23.5q-13 0 -26 2.5t-24 6.5q-34 -40 -78 -70t-89 -30zM224 122q24 35 41 75t17 74q0 23 -7 33.5t-21 10.5q-19 0 -39 -27t-20 -68
q0 -21 7.5 -51t21.5 -47zM380 411q-28 0 -58 12t-59.5 24t-55.5 12q-17 0 -32.5 -2.5t-32.5 -10.5q12 30 35 44.5t55 14.5q28 0 57.5 -12t58.5 -24t57 -12q30 0 59 10q-14 -27 -33.5 -41.5t-50.5 -14.5z" />
    <glyph glyph-name="odieresis" unicode="&#xf6;" horiz-adv-x="350" 
d="M66 -32q-45 0 -61.5 29.5t-16.5 64.5q0 32 10 65.5t27.5 62.5t39 46.5t43.5 17.5q7 0 16.5 -2.5t13.5 -7.5q-12 -15 -24.5 -37t-23 -46.5t-16.5 -49.5t-6 -46q0 -20 7.5 -33t26.5 -13t45.5 21.5t50.5 49.5q-32 29 -46 63.5t-14 83.5q0 21 10.5 48t34 47t63.5 20
q43 0 60.5 -24t17.5 -57q0 -37 -19.5 -83t-46.5 -87q12 -6 28 -6q15 0 36 7t41 23.5t32 44.5l18 -13q-22 -51 -58.5 -74.5t-71.5 -23.5q-13 0 -26 2.5t-24 6.5q-34 -40 -78 -70t-89 -30zM224 122q24 35 41 75t17 74q0 23 -7 33.5t-21 10.5q-19 0 -39 -27t-20 -68
q0 -21 7.5 -51t21.5 -47zM354 411q-16 0 -29 8.5t-13 25.5q0 20 22.5 34t44.5 14q15 0 26 -7t11 -26q0 -17 -19.5 -33t-42.5 -16zM210 431q-16 0 -29.5 8t-13.5 26q0 19 22.5 33.5t44.5 14.5q16 0 26 -7t10 -25q0 -17 -18.5 -33.5t-41.5 -16.5z" />
    <glyph glyph-name="divide" unicode="&#xf7;" horiz-adv-x="491" 
d="M26 116q8 30 39 43t75.5 16.5t94.5 3.5q36 0 73.5 -2t69.5 -4t50 -4q-22 -15 -47 -24t-61 -13t-92 -4q-43 0 -90 -2t-112 -10zM185 -15q-15 0 -28 8t-13 25q0 19 21.5 33t43.5 14q15 0 24.5 -7t9.5 -24q0 -16 -18 -32.5t-40 -16.5zM243 234q-15 0 -28 8t-13 25
q0 19 21.5 33t43.5 14q15 0 24.5 -7t9.5 -24q0 -16 -17.5 -32.5t-40.5 -16.5z" />
    <glyph glyph-name="oslash" unicode="&#xf8;" horiz-adv-x="372" 
d="M66 -32q-17 0 -26 4q-17 -11 -33.5 -17t-32.5 -6q-5 0 -9.5 1t-9.5 2q11 6 24 17t27 26q-10 14 -14 31t-4 36q0 32 10 65.5t27.5 62.5t39 46.5t43.5 17.5q8 0 14.5 -2.5t15.5 -6.5q-9 -5 -21 -25t-23 -48t-18.5 -57t-7.5 -53q20 23 41 48.5t41 51.5q-5 17 -8 36t-3 42
q0 34 13 59t37.5 39t56.5 14q24 0 42 -10l12 16l12 16q5 7 16.5 11t27.5 4q5 0 11.5 -0.5t12.5 -2.5q-4 -7 -21 -29t-40 -52q5 -17 5 -34q0 -37 -19.5 -83t-46.5 -87q17 -10 37 -10q29 0 55.5 20.5t44.5 58.5l18 -13q-22 -51 -58.5 -74.5t-71.5 -23.5q-13 0 -26 2.5t-24 6.5
q-34 -40 -78 -70t-89 -30zM198 90l-14 14t-12 15q-23 -29 -42 -54t-37 -45q3 -1 9 -1q19 0 45.5 21.5t50.5 49.5zM224 122q22 31 38 67.5t19 68.5q-19 -25 -38 -49t-38 -49q3 -11 8 -21t11 -17zM266 312q-2 2 -5.5 2.5t-6.5 0.5q-13 0 -26.5 -12.5t-23 -34.5t-9.5 -50
q18 23 35.5 47t35.5 47z" />
    <glyph glyph-name="ugrave" unicode="&#xf9;" horiz-adv-x="441" 
d="M76 -30q-34 0 -55.5 31.5t-21.5 72.5q0 28 9 66t23.5 74t30 60t28.5 24q7 0 21.5 -7.5t25.5 -18.5q-11 -16 -26.5 -49t-27.5 -71t-12 -69q0 -4 1.5 -19t7.5 -28t21 -13q17 0 36.5 18.5t40 48t40 63.5t35 66t25.5 54q9 -1 23.5 -5t25.5 -10.5t11 -18.5q0 -3 -9.5 -24.5
t-22 -51.5t-22 -61.5t-9.5 -55.5q0 -14 5.5 -24.5t21.5 -10.5q21 0 50 19t60 55t55 86l15 -12q-22 -54 -57 -97t-75 -67.5t-78 -24.5q-29 0 -43.5 13.5t-19.5 35t-6 43.5v10.5v9.5q-17 -27 -37 -52.5t-42.5 -42.5t-47.5 -17zM270 369q-23 28 -49.5 53.5t-67.5 56.5
q2 20 11.5 29.5t20.5 9.5q15 0 34 -13.5t36.5 -33.5t28.5 -38.5t11 -27.5q0 -7 -6.5 -19t-18.5 -17z" />
    <glyph glyph-name="uacute" unicode="&#xfa;" horiz-adv-x="441" 
d="M76 -30q-34 0 -55.5 31.5t-21.5 72.5q0 28 9 66t23.5 74t30 60t28.5 24q7 0 21.5 -7.5t25.5 -18.5q-11 -16 -26.5 -49t-27.5 -71t-12 -69q0 -4 1.5 -19t7.5 -28t21 -13q17 0 36.5 18.5t40 48t40 63.5t35 66t25.5 54q9 -1 23.5 -5t25.5 -10.5t11 -18.5q0 -3 -9.5 -24.5
t-22 -51.5t-22 -61.5t-9.5 -55.5q0 -14 5.5 -24.5t21.5 -10.5q21 0 50 19t60 55t55 86l15 -12q-22 -54 -57 -97t-75 -67.5t-78 -24.5q-29 0 -43.5 13.5t-19.5 35t-6 43.5v10.5v9.5q-17 -27 -37 -52.5t-42.5 -42.5t-47.5 -17zM245 370q-13 5 -18.5 16.5t-5.5 16.5
q0 8 10 26.5t26 39t33.5 35t33.5 14.5q11 0 19.5 -7.5t10.5 -27.5q-35 -34 -61.5 -59.5t-47.5 -53.5z" />
    <glyph glyph-name="ucircumflex" unicode="&#xfb;" horiz-adv-x="441" 
d="M76 -30q-34 0 -55.5 31.5t-21.5 72.5q0 28 9 66t23.5 74t30 60t28.5 24q7 0 21.5 -7.5t25.5 -18.5q-11 -16 -26.5 -49t-27.5 -71t-12 -69q0 -4 1.5 -19t7.5 -28t21 -13q17 0 36.5 18.5t40 48t40 63.5t35 66t25.5 54q9 -1 23.5 -5t25.5 -10.5t11 -18.5q0 -3 -9.5 -24.5
t-22 -51.5t-22 -61.5t-9.5 -55.5q0 -14 5.5 -24.5t21.5 -10.5q21 0 50 19t60 55t55 86l15 -12q-22 -54 -57 -97t-75 -67.5t-78 -24.5q-29 0 -43.5 13.5t-19.5 35t-6 43.5v10.5v9.5q-17 -27 -37 -52.5t-42.5 -42.5t-47.5 -17zM334 362q-16 27 -33.5 45.5t-38.5 37.5
q-27 -9 -51.5 -22t-50.5 -30q-7 5 -10 14t-3 14q0 15 13.5 30t33.5 27.5t39 20.5t30 8q12 0 28.5 -10.5t32 -27t25.5 -35t10 -33.5q0 -10 -5.5 -21t-19.5 -18z" />
    <glyph glyph-name="udieresis" unicode="&#xfc;" horiz-adv-x="441" 
d="M76 -30q-34 0 -55.5 31.5t-21.5 72.5q0 28 9 66t23.5 74t30 60t28.5 24q7 0 21.5 -7.5t25.5 -18.5q-11 -16 -26.5 -49t-27.5 -71t-12 -69q0 -4 1.5 -19t7.5 -28t21 -13q17 0 36.5 18.5t40 48t40 63.5t35 66t25.5 54q9 -1 23.5 -5t25.5 -10.5t11 -18.5q0 -3 -9.5 -24.5
t-22 -51.5t-22 -61.5t-9.5 -55.5q0 -14 5.5 -24.5t21.5 -10.5q21 0 50 19t60 55t55 86l15 -12q-22 -54 -57 -97t-75 -67.5t-78 -24.5q-29 0 -43.5 13.5t-19.5 35t-6 43.5v10.5v9.5q-17 -27 -37 -52.5t-42.5 -42.5t-47.5 -17zM314 377q-16 0 -29 8.5t-13 25.5q0 20 22.5 34
t44.5 14q15 0 26 -7t11 -26q0 -17 -19.5 -33t-42.5 -16zM170 397q-16 0 -29.5 8t-13.5 26q0 19 22.5 33.5t44.5 14.5q16 0 26 -7t10 -25q0 -17 -18.5 -33.5t-41.5 -16.5z" />
    <glyph glyph-name="yacute" unicode="&#xfd;" horiz-adv-x="400" 
d="M48 -280q-25 0 -46.5 15.5t-21.5 49.5q0 32 19 57.5t49 47t64.5 39t66.5 32.5q11 29 24.5 73.5t23.5 82.5q-31 -43 -66 -76t-78 -33q-18 0 -38 7.5t-33.5 26t-13.5 49.5q0 26 9.5 63t24 72.5t30.5 59t28 23.5q6 0 17.5 -4.5t22.5 -12t14 -16.5q-9 -12 -20 -34.5t-21 -50
t-16.5 -53.5t-6.5 -45q0 -15 6 -26t23 -11q22 0 45.5 18t46 46t40.5 57q2 7 4 22t7 31q5 17 17.5 31t35.5 14q8 0 15 -1t17 -3q0 -15 -10.5 -58.5t-27.5 -100.5t-38 -114q42 17 87.5 56.5t73.5 112.5l17 -14q-15 -50 -45.5 -87t-68.5 -63t-77 -43q-27 -65 -58.5 -120
t-66.5 -87.5t-75 -32.5zM38 -243q19 0 53 40t69 120q-32 -16 -64.5 -37.5t-54.5 -45.5t-22 -49q0 -10 4.5 -19t14.5 -9zM237 381q-13 5 -18.5 16.5t-5.5 16.5q0 8 10 26.5t26 39t33.5 35t33.5 14.5q11 0 19.5 -7.5t10.5 -27.5q-35 -34 -61.5 -59.5t-47.5 -53.5z" />
    <glyph glyph-name="thorn" unicode="&#xfe;" horiz-adv-x="415" 
d="M-54 -280q-9 0 -17.5 10t-14.5 21.5t-6 14.5q24 79 45.5 155.5t40.5 161t35 186.5t29 231q2 14 5.5 18.5t21.5 4.5q29 0 41.5 -12t12.5 -46q0 -14 -2 -35t-5.5 -45.5t-7.5 -52t-8.5 -54.5t-8.5 -52q19 29 43.5 55.5t55 43.5t65.5 17q48 0 81 -32.5t33 -87.5
q0 -39 -18 -83t-50.5 -82.5t-77.5 -63t-100 -24.5q-32 0 -50.5 8t-18.5 18q0 8 10.5 9.5t22.5 1.5q40 0 76.5 18t64.5 48.5t44.5 66.5t16.5 72q0 29 -12.5 50t-42.5 21q-26 0 -51.5 -16t-47.5 -40.5t-39 -50.5t-25 -46q-19 -80 -36.5 -148t-33.5 -120.5t-30.5 -86.5
t-27.5 -47q-6 -7 -13 -7z" />
    <glyph glyph-name="ydieresis" unicode="&#xff;" horiz-adv-x="400" 
d="M48 -280q-25 0 -46.5 15.5t-21.5 49.5q0 32 19 57.5t49 47t64.5 39t66.5 32.5q11 29 24.5 73.5t23.5 82.5q-31 -43 -66 -76t-78 -33q-18 0 -38 7.5t-33.5 26t-13.5 49.5q0 26 9.5 63t24 72.5t30.5 59t28 23.5q6 0 17.5 -4.5t22.5 -12t14 -16.5q-9 -12 -20 -34.5t-21 -50
t-16.5 -53.5t-6.5 -45q0 -15 6 -26t23 -11q22 0 45.5 18t46 46t40.5 57q2 7 4 22t7 31q5 17 17.5 31t35.5 14q8 0 15 -1t17 -3q0 -15 -10.5 -58.5t-27.5 -100.5t-38 -114q42 17 87.5 56.5t73.5 112.5l17 -14q-15 -50 -45.5 -87t-68.5 -63t-77 -43q-27 -65 -58.5 -120
t-66.5 -87.5t-75 -32.5zM38 -243q19 0 53 40t69 120q-32 -16 -64.5 -37.5t-54.5 -45.5t-22 -49q0 -10 4.5 -19t14.5 -9zM306 388q-16 0 -29 8.5t-13 25.5q0 20 22.5 34t44.5 14q15 0 26 -7t11 -26q0 -17 -19.5 -33t-42.5 -16zM162 408q-16 0 -29.5 8t-13.5 26
q0 19 22.5 33.5t44.5 14.5q16 0 26 -7t10 -25q0 -17 -18.5 -33.5t-41.5 -16.5z" />
    <glyph glyph-name="Amacron" unicode="&#x100;" horiz-adv-x="631" 
d="M46 -87q-30 16 -38 33t-8 29q0 27 19.5 72.5t52.5 104.5t75 123q-31 2 -59 3t-72 1h-16q14 36 44.5 50.5t71.5 14.5q17 0 35.5 -2t38.5 -4q50 72 98.5 136t92 115.5t77.5 84.5q48 48 70 48q14 0 31.5 -11t36.5 -28q-10 -8 -25.5 -41t-33 -83.5t-35 -110.5t-31.5 -122
t-22.5 -118.5t-8.5 -99.5q0 -40 8 -59.5t27 -19.5q23 0 57 35t76 114l18 -19q-31 -82 -80.5 -135t-105.5 -53q-48 0 -68 41.5t-20 113.5q0 23 3 52t10 72q-44 7 -78 11t-65 8q-48 -85 -93 -176t-83 -180zM375 299q13 59 30.5 119.5t37 116t38.5 99.5q-30 -24 -67 -69
t-77.5 -106t-82.5 -133q30 -6 60 -13t61 -14zM681 758q-23 0 -56.5 5.5t-70 13.5t-69.5 15.5t-56 10.5q11 30 50 30q36 0 78.5 -7.5t86 -18.5t78.5 -24q-12 -25 -41 -25z" />
    <glyph glyph-name="amacron" unicode="&#x101;" horiz-adv-x="444" 
d="M56 -47q-33 0 -57.5 22t-24.5 66q0 35 16 76t44 81t64 72.5t77 52.5t82 20q43 0 73 -22t30 -58q0 -27 -19 -39t-45 -7q2 9 3.5 18t1.5 19q0 20 -8 36t-34 16q-28 0 -57 -19t-55.5 -49.5t-47.5 -67t-33 -71.5t-12 -63q0 -32 23 -32t51 22.5t56.5 56.5t54.5 69.5t45 60.5
q3 5 8 5q4 -1 15.5 -4.5t21.5 -10.5t10 -18q0 -10 -8.5 -25.5t-20 -34t-20 -37t-8.5 -35.5q0 -13 7 -24.5t23 -11.5q24 0 67.5 35.5t88.5 120.5l19 -19q-24 -54 -57.5 -95.5t-70.5 -65t-75 -23.5q-41 0 -61 26t-22 56v3v2q-40 -48 -73.5 -76t-71.5 -28zM401 427
q-23 0 -56.5 5.5t-70 13.5t-69.5 15.5t-56 10.5q11 30 50 30q36 0 78.5 -7.5t86 -18.5t78.5 -24q-12 -25 -41 -25z" />
    <glyph glyph-name="Abreve" unicode="&#x102;" horiz-adv-x="631" 
d="M46 -87q-30 16 -38 33t-8 29q0 27 19.5 72.5t52.5 104.5t75 123q-31 2 -59 3t-72 1h-16q14 36 44.5 50.5t71.5 14.5q17 0 35.5 -2t38.5 -4q50 72 98.5 136t92 115.5t77.5 84.5q48 48 70 48q14 0 31.5 -11t36.5 -28q-10 -8 -25.5 -41t-33 -83.5t-35 -110.5t-31.5 -122
t-22.5 -118.5t-8.5 -99.5q0 -40 8 -59.5t27 -19.5q23 0 57 35t76 114l18 -19q-31 -82 -80.5 -135t-105.5 -53q-48 0 -68 41.5t-20 113.5q0 23 3 52t10 72q-44 7 -78 11t-65 8q-48 -85 -93 -176t-83 -180zM375 299q13 59 30.5 119.5t37 116t38.5 99.5q-30 -24 -67 -69
t-77.5 -106t-82.5 -133q30 -6 60 -13t61 -14zM620 758q-41 0 -66 16t-35.5 38t-10.5 41q0 18 7.5 30t20.5 19q5 -29 25 -54.5t61 -25.5q36 0 58 16t33 33q8 -7 11 -16t3 -17q0 -34 -32.5 -57t-74.5 -23z" />
    <glyph glyph-name="abreve" unicode="&#x103;" horiz-adv-x="444" 
d="M56 -47q-33 0 -57.5 22t-24.5 66q0 35 16 76t44 81t64 72.5t77 52.5t82 20q43 0 73 -22t30 -58q0 -27 -19 -39t-45 -7q2 9 3.5 18t1.5 19q0 20 -8 36t-34 16q-28 0 -57 -19t-55.5 -49.5t-47.5 -67t-33 -71.5t-12 -63q0 -32 23 -32t51 22.5t56.5 56.5t54.5 69.5t45 60.5
q3 5 8 5q4 -1 15.5 -4.5t21.5 -10.5t10 -18q0 -10 -8.5 -25.5t-20 -34t-20 -37t-8.5 -35.5q0 -13 7 -24.5t23 -11.5q24 0 67.5 35.5t88.5 120.5l19 -19q-24 -54 -57.5 -95.5t-70.5 -65t-75 -23.5q-41 0 -61 26t-22 56v3v2q-40 -48 -73.5 -76t-71.5 -28zM332 410
q-41 0 -66 16t-35.5 38t-10.5 41q0 18 7.5 30t20.5 19q5 -29 25 -54.5t61 -25.5q36 0 58 16t33 33q8 -7 11 -16t3 -17q0 -34 -32.5 -57t-74.5 -23z" />
    <glyph glyph-name="Aogonek" unicode="&#x104;" horiz-adv-x="631" 
d="M46 -87q-30 16 -38 33t-8 29q0 27 19.5 72.5t52.5 104.5t75 123q-31 2 -59 3t-72 1h-16q14 36 44.5 50.5t71.5 14.5q17 0 35.5 -2t38.5 -4q50 72 98.5 136t92 115.5t77.5 84.5q48 48 70 48q14 0 31.5 -11t36.5 -28q-10 -8 -25.5 -41t-33 -83.5t-35 -110.5t-31.5 -122
t-22.5 -118.5t-8.5 -99.5q0 -40 8 -59.5t27 -19.5q23 0 57 35t76 114l18 -19q-31 -82 -80.5 -135t-105.5 -53q-48 0 -68 41.5t-20 113.5q0 23 3 52t10 72q-44 7 -78 11t-65 8q-48 -85 -93 -176t-83 -180zM375 299q13 59 30.5 119.5t37 116t38.5 99.5q-30 -24 -67 -69
t-77.5 -106t-82.5 -133q30 -6 60 -13t61 -14zM515 -153q-34 0 -54.5 21t-20.5 53q0 33 23.5 54.5t54.5 24.5q-13 -10 -21 -24.5t-8 -32.5q0 -16 10.5 -29t31.5 -13q17 0 30.5 5.5t27.5 15.5q-1 -36 -21.5 -55.5t-52.5 -19.5z" />
    <glyph glyph-name="aogonek" unicode="&#x105;" horiz-adv-x="444" 
d="M56 -47q-33 0 -57.5 22t-24.5 66q0 35 16 76t44 81t64 72.5t77 52.5t82 20q43 0 73 -22t30 -58q0 -27 -19 -39t-45 -7q2 9 3.5 18t1.5 19q0 20 -8 36t-34 16q-28 0 -57 -19t-55.5 -49.5t-47.5 -67t-33 -71.5t-12 -63q0 -32 23 -32t51 22.5t56.5 56.5t54.5 69.5t45 60.5
q3 5 8 5q4 -1 15.5 -4.5t21.5 -10.5t10 -18q0 -10 -8.5 -25.5t-20 -34t-20 -37t-8.5 -35.5q0 -13 7 -24.5t23 -11.5q24 0 67.5 35.5t88.5 120.5l19 -19q-24 -54 -57.5 -95.5t-70.5 -65t-75 -23.5q-41 0 -61 26t-22 56v3v2q-40 -48 -73.5 -76t-71.5 -28zM366 -153
q-34 0 -54.5 21t-20.5 53q0 33 23.5 54.5t54.5 24.5q-13 -10 -21 -24.5t-8 -32.5q0 -16 10.5 -29t31.5 -13q17 0 30.5 5.5t27.5 15.5q-1 -36 -21.5 -55.5t-52.5 -19.5z" />
    <glyph glyph-name="Cacute" unicode="&#x106;" horiz-adv-x="570" 
d="M250 -87q-76 0 -124.5 36t-71 93t-22.5 118q0 79 24 158.5t66.5 151.5t96.5 128t115.5 88.5t122.5 32.5q44 0 74 -20.5t30 -70.5q0 -30 -10.5 -67t-28 -71.5t-39.5 -56.5t-45 -22q-10 0 -21 7t-20 24q15 17 34 41.5t36 52t28 54t11 46.5q0 18 -10 28.5t-35 10.5
q-44 0 -90.5 -33t-89.5 -88.5t-77.5 -124t-54.5 -141t-20 -137.5q0 -48 14.5 -91.5t46.5 -71t84 -27.5q54 0 107.5 30t98 79t71.5 105l26 -17q-35 -67 -84 -122.5t-110.5 -89t-132.5 -33.5zM530 747q-13 5 -18.5 16.5t-5.5 16.5q0 8 10 26.5t26 39t33.5 35t33.5 14.5
q11 0 19.5 -7.5t10.5 -27.5q-35 -34 -61.5 -59.5t-47.5 -53.5z" />
    <glyph glyph-name="cacute" unicode="&#x107;" horiz-adv-x="333" 
d="M113 -56q-52 0 -85.5 32.5t-33.5 99.5q0 49 19 96t51 84.5t71.5 59.5t80.5 22q42 0 60.5 -21t18.5 -49t-13.5 -54.5t-36.5 -26.5q-19 0 -31 19q10 7 21 26t11 49q0 8 -4 12.5t-15 4.5q-25 0 -52.5 -22.5t-51 -58t-38 -75t-14.5 -72.5q0 -28 14.5 -51.5t56.5 -23.5
q38 0 79 22t77 61.5t58 94.5l20 -18q-24 -61 -66.5 -108.5t-94 -75t-102.5 -27.5zM267 404q-13 5 -18.5 16.5t-5.5 16.5q0 8 10 26.5t26 39t33.5 35t33.5 14.5q11 0 19.5 -7.5t10.5 -27.5q-35 -34 -61.5 -59.5t-47.5 -53.5z" />
    <glyph glyph-name="Ccircumflex" unicode="&#x108;" horiz-adv-x="570" 
d="M250 -87q-76 0 -124.5 36t-71 93t-22.5 118q0 79 24 158.5t66.5 151.5t96.5 128t115.5 88.5t122.5 32.5q44 0 74 -20.5t30 -70.5q0 -30 -10.5 -67t-28 -71.5t-39.5 -56.5t-45 -22q-10 0 -21 7t-20 24q15 17 34 41.5t36 52t28 54t11 46.5q0 18 -10 28.5t-35 10.5
q-44 0 -90.5 -33t-89.5 -88.5t-77.5 -124t-54.5 -141t-20 -137.5q0 -48 14.5 -91.5t46.5 -71t84 -27.5q54 0 107.5 30t98 79t71.5 105l26 -17q-35 -67 -84 -122.5t-110.5 -89t-132.5 -33.5zM619 743q-16 27 -33.5 45.5t-38.5 37.5q-27 -9 -51.5 -22t-50.5 -30q-7 5 -10 14
t-3 14q0 15 13.5 30t33.5 27.5t39 20.5t30 8q12 0 28.5 -10.5t32 -27t25.5 -35t10 -33.5q0 -10 -5.5 -21t-19.5 -18z" />
    <glyph glyph-name="ccircumflex" unicode="&#x109;" horiz-adv-x="333" 
d="M113 -56q-52 0 -85.5 32.5t-33.5 99.5q0 49 19 96t51 84.5t71.5 59.5t80.5 22q42 0 60.5 -21t18.5 -49t-13.5 -54.5t-36.5 -26.5q-19 0 -31 19q10 7 21 26t11 49q0 8 -4 12.5t-15 4.5q-25 0 -52.5 -22.5t-51 -58t-38 -75t-14.5 -72.5q0 -28 14.5 -51.5t56.5 -23.5
q38 0 79 22t77 61.5t58 94.5l20 -18q-24 -61 -66.5 -108.5t-94 -75t-102.5 -27.5zM356 396q-16 27 -33.5 45.5t-38.5 37.5q-27 -9 -51.5 -22t-50.5 -30q-7 5 -10 14t-3 14q0 15 13.5 30t33.5 27.5t39 20.5t30 8q12 0 28.5 -10.5t32 -27t25.5 -35t10 -33.5q0 -10 -5.5 -21
t-19.5 -18z" />
    <glyph glyph-name="Cdotaccent" unicode="&#x10a;" horiz-adv-x="570" 
d="M250 -87q-76 0 -124.5 36t-71 93t-22.5 118q0 79 24 158.5t66.5 151.5t96.5 128t115.5 88.5t122.5 32.5q44 0 74 -20.5t30 -70.5q0 -30 -10.5 -67t-28 -71.5t-39.5 -56.5t-45 -22q-10 0 -21 7t-20 24q15 17 34 41.5t36 52t28 54t11 46.5q0 18 -10 28.5t-35 10.5
q-44 0 -90.5 -33t-89.5 -88.5t-77.5 -124t-54.5 -141t-20 -137.5q0 -48 14.5 -91.5t46.5 -71t84 -27.5q54 0 107.5 30t98 79t71.5 105l26 -17q-35 -67 -84 -122.5t-110.5 -89t-132.5 -33.5zM518 765q-19 0 -32 10.5t-13 29.5q0 23 23 37t46 14q21 0 30.5 -10t9.5 -26
q0 -22 -20 -38.5t-44 -16.5z" />
    <glyph glyph-name="cdotaccent" unicode="&#x10b;" horiz-adv-x="333" 
d="M113 -56q-52 0 -85.5 32.5t-33.5 99.5q0 49 19 96t51 84.5t71.5 59.5t80.5 22q42 0 60.5 -21t18.5 -49t-13.5 -54.5t-36.5 -26.5q-19 0 -31 19q10 7 21 26t11 49q0 8 -4 12.5t-15 4.5q-25 0 -52.5 -22.5t-51 -58t-38 -75t-14.5 -72.5q0 -28 14.5 -51.5t56.5 -23.5
q38 0 79 22t77 61.5t58 94.5l20 -18q-24 -61 -66.5 -108.5t-94 -75t-102.5 -27.5zM259 403q-19 0 -32 10.5t-13 29.5q0 23 23 37t46 14q21 0 30.5 -10t9.5 -26q0 -22 -20 -38.5t-44 -16.5z" />
    <glyph glyph-name="Ccaron" unicode="&#x10c;" horiz-adv-x="570" 
d="M250 -87q-76 0 -124.5 36t-71 93t-22.5 118q0 79 24 158.5t66.5 151.5t96.5 128t115.5 88.5t122.5 32.5q44 0 74 -20.5t30 -70.5q0 -30 -10.5 -67t-28 -71.5t-39.5 -56.5t-45 -22q-10 0 -21 7t-20 24q15 17 34 41.5t36 52t28 54t11 46.5q0 18 -10 28.5t-35 10.5
q-44 0 -90.5 -33t-89.5 -88.5t-77.5 -124t-54.5 -141t-20 -137.5q0 -48 14.5 -91.5t46.5 -71t84 -27.5q54 0 107.5 30t98 79t71.5 105l26 -17q-35 -67 -84 -122.5t-110.5 -89t-132.5 -33.5zM509 753q-14 0 -31.5 12t-33.5 31t-26 39.5t-10 37.5q0 11 5.5 20.5t18.5 15.5
q16 -30 34 -53t43 -45q30 12 55.5 27.5t46.5 32.5q8 -5 12.5 -13t4.5 -16q0 -15 -14 -30.5t-34.5 -29t-40 -21.5t-30.5 -8z" />
    <glyph glyph-name="ccaron" unicode="&#x10d;" horiz-adv-x="333" 
d="M113 -56q-52 0 -85.5 32.5t-33.5 99.5q0 49 19 96t51 84.5t71.5 59.5t80.5 22q42 0 60.5 -21t18.5 -49t-13.5 -54.5t-36.5 -26.5q-19 0 -31 19q10 7 21 26t11 49q0 8 -4 12.5t-15 4.5q-25 0 -52.5 -22.5t-51 -58t-38 -75t-14.5 -72.5q0 -28 14.5 -51.5t56.5 -23.5
q38 0 79 22t77 61.5t58 94.5l20 -18q-24 -61 -66.5 -108.5t-94 -75t-102.5 -27.5zM270 404q-14 0 -31.5 12t-33.5 31t-26 39.5t-10 37.5q0 11 5.5 20.5t18.5 15.5q16 -30 34 -53t43 -45q30 12 55.5 27.5t46.5 32.5q8 -5 12.5 -13t4.5 -16q0 -15 -14 -30.5t-34.5 -29
t-40 -21.5t-30.5 -8z" />
    <glyph glyph-name="Dcaron" unicode="&#x10e;" horiz-adv-x="687" 
d="M191 -87q-35 0 -66.5 9.5t-54.5 40.5q3 24 14.5 70t28.5 104.5t36 120.5t37.5 118.5t33 99t21.5 61.5q3 8 10 24t18 33t25.5 28.5t31.5 11.5t38 -14q-31 -70 -62.5 -155.5t-60 -176t-52 -176t-38.5 -156.5q8 -3 22.5 -4.5t27.5 -1.5q65 0 124 31.5t108.5 84t86.5 118
t57 134.5t20 132q0 81 -27.5 131.5t-75.5 74t-110 23.5q-65 0 -117 -23.5t-81.5 -64t-29.5 -92.5q0 -11 2 -23.5t7 -24.5q-43 0 -61.5 18.5t-18.5 45.5q0 35 25.5 71t71 66.5t105.5 49t130 18.5q98 0 157 -37.5t85.5 -101t26.5 -141.5q0 -86 -27.5 -164.5t-76 -144.5
t-112 -115t-135 -76t-144.5 -27zM523 754q-14 0 -31.5 12t-33.5 31t-26 39.5t-10 37.5q0 11 5.5 20.5t18.5 15.5q16 -30 34 -53t43 -45q30 12 55.5 27.5t46.5 32.5q8 -5 12.5 -13t4.5 -16q0 -15 -14 -30.5t-34.5 -29t-40 -21.5t-30.5 -8z" />
    <glyph glyph-name="dcaron" unicode="&#x10f;" horiz-adv-x="491" 
d="M69 -30q-19 0 -38.5 9.5t-33 29.5t-13.5 51q0 33 16 74t43.5 82t64 75t77.5 55t83 21q23 0 36 -7.5t13 -24.5q0 -5 -2 -11.5t-10 -11.5q-4 6 -14 8.5t-21 2.5q-33 0 -63 -18.5t-55 -47.5t-43.5 -63t-28.5 -65.5t-10 -54.5q0 -19 8 -30.5t24 -11.5q27 0 64.5 31.5t77 91
t71.5 142.5q22 57 46 116.5t48 114.5t47.5 98t45 68.5t39.5 25.5q11 0 19.5 -8.5t8.5 -21.5q0 -17 -16.5 -54.5t-42 -89.5t-55 -112.5t-55 -124t-42 -125t-16.5 -115.5q0 -24 4.5 -32.5t15.5 -8.5q22 0 49 17t55 50.5t51 80.5l19 -16q-22 -55 -56 -97t-73 -65.5t-77 -23.5
q-41 0 -57 26t-16 61q0 16 2.5 32.5t5.5 32.5q-31 -45 -65.5 -80.5t-67.5 -55.5t-63 -20zM596 525q-10 0 -20 8.5t-10 24.5q0 20 15 43.5t36.5 40.5t40.5 17q11 0 21 -8q-18 -26 -35 -58.5t-29 -61.5q-7 -6 -19 -6z" />
    <glyph glyph-name="Dcroat" unicode="&#x110;" horiz-adv-x="688" 
d="M192 -87q-36 0 -67.5 9.5t-54.5 40.5q14 68 36.5 152t47.5 163q-27 -1 -60 -4.5t-66 -8.5q17 34 54.5 47t87.5 16q22 69 42 127.5t29 81.5q3 8 10 24t18 33t25.5 28.5t31.5 11.5t38 -14q-28 -64 -56 -138.5t-53 -151.5q53 0 104 -4t79 -6q-37 -25 -70.5 -33t-56.5 -8h-72
q-28 -87 -50.5 -170t-37.5 -153q11 -1 19.5 -2t18.5 -1q64 0 124 28t111.5 77t90.5 112t60.5 134t21.5 142q0 120 -59.5 176.5t-154.5 56.5q-65 0 -116.5 -23.5t-81 -64.5t-29.5 -92q0 -11 2 -23.5t7 -24.5q-43 0 -61.5 18.5t-18.5 45.5q0 35 25.5 71t71 66.5t105 49
t128.5 18.5q99 0 158.5 -39t86 -103.5t26.5 -142.5q0 -86 -27.5 -164t-76 -143.5t-111.5 -113.5t-134.5 -74.5t-144.5 -26.5z" />
    <glyph glyph-name="dcroat" unicode="&#x111;" horiz-adv-x="492" 
d="M247 515q21 42 70.5 53t114.5 11q39 2 80.5 0t77.5 -4.5t57 -4.5q-37 -25 -70.5 -33t-56.5 -8q-67 0 -111 -1t-72.5 -3t-49 -4.5t-40.5 -5.5zM69 -30q-19 0 -38.5 9.5t-33 29.5t-13.5 51q0 33 16 74t43.5 82t64 75t77.5 55t83 21q23 0 36 -7.5t13 -24.5q0 -5 -2 -11.5
t-10 -11.5q-4 6 -14 8.5t-21 2.5q-33 0 -63 -18.5t-55 -47.5t-43.5 -63t-28.5 -65.5t-10 -54.5q0 -19 8 -30.5t24 -11.5q27 0 64.5 31.5t77 91t71.5 142.5q22 57 46 116.5t48 114.5t47.5 98t45 68.5t39.5 25.5q11 0 19.5 -8.5t8.5 -21.5q0 -17 -16.5 -54.5t-42 -89.5
t-55 -112.5t-55 -124t-42 -125t-16.5 -115.5q0 -24 4.5 -32.5t15.5 -8.5q22 0 49 17t55 50.5t51 80.5l19 -16q-22 -55 -56 -97t-73 -65.5t-77 -23.5q-41 0 -57 26t-16 61q0 16 2.5 32.5t5.5 32.5q-31 -45 -65.5 -80.5t-67.5 -55.5t-63 -20z" />
    <glyph glyph-name="Emacron" unicode="&#x112;" horiz-adv-x="533" 
d="M209 -87q-64 0 -112 25.5t-74.5 68t-26.5 94.5q0 44 19 87t53.5 78.5t81 60t101.5 32.5q-36 32 -54 71t-18 80q0 53 27 101t76 78t114 30q61 0 94 -29.5t33 -85.5q0 -39 -14 -74.5t-33.5 -57.5t-38.5 -22q-14 0 -26.5 12.5t-21.5 28.5q37 30 62.5 64t25.5 70
q0 30 -20 45.5t-52 15.5q-45 0 -75.5 -27.5t-46 -70t-15.5 -87.5q0 -43 16 -86.5t58 -75.5q-72 -11 -125 -49.5t-82 -89.5t-29 -101q0 -30 12.5 -63t41 -55.5t76.5 -22.5q55 0 108 30.5t97.5 80.5t71.5 106l27 -17q-37 -69 -87 -124.5t-111 -88t-133 -32.5zM544 758
q-23 0 -56.5 5.5t-70 13.5t-69.5 15.5t-56 10.5q11 30 50 30q36 0 78.5 -7.5t86 -18.5t78.5 -24q-12 -25 -41 -25z" />
    <glyph glyph-name="emacron" unicode="&#x113;" horiz-adv-x="341" 
d="M116 -44q-64 0 -98.5 34.5t-34.5 86.5q0 44 22.5 93.5t60.5 93t84 70.5t92 27q26 0 49.5 -13.5t23.5 -53.5q0 -38 -22 -71t-59 -59t-81.5 -42.5t-89.5 -21.5q-1 -4 -1.5 -8.5t-0.5 -14.5q0 -5 1.5 -17.5t8.5 -26.5t23 -24t44 -10q42 0 84.5 23.5t80 62.5t62.5 87l20 -16
q-27 -60 -69.5 -105t-94 -70t-105.5 -25zM74 137q26 3 58 18t61.5 38t48.5 50.5t19 55.5q0 11 -4 15t-13 4q-23 0 -48 -16.5t-49 -43t-43 -58.5t-30 -63zM383 436q-23 0 -56.5 5.5t-70 13.5t-69.5 15.5t-56 10.5q11 30 50 30q36 0 78.5 -7.5t86 -18.5t78.5 -24
q-12 -25 -41 -25z" />
    <glyph glyph-name="Ebreve" unicode="&#x114;" horiz-adv-x="533" 
d="M209 -87q-64 0 -112 25.5t-74.5 68t-26.5 94.5q0 44 19 87t53.5 78.5t81 60t101.5 32.5q-36 32 -54 71t-18 80q0 53 27 101t76 78t114 30q61 0 94 -29.5t33 -85.5q0 -39 -14 -74.5t-33.5 -57.5t-38.5 -22q-14 0 -26.5 12.5t-21.5 28.5q37 30 62.5 64t25.5 70
q0 30 -20 45.5t-52 15.5q-45 0 -75.5 -27.5t-46 -70t-15.5 -87.5q0 -43 16 -86.5t58 -75.5q-72 -11 -125 -49.5t-82 -89.5t-29 -101q0 -30 12.5 -63t41 -55.5t76.5 -22.5q55 0 108 30.5t97.5 80.5t71.5 106l27 -17q-37 -69 -87 -124.5t-111 -88t-133 -32.5zM483 758
q-41 0 -66 16t-35.5 38t-10.5 41q0 18 7.5 30t20.5 19q5 -29 25 -54.5t61 -25.5q36 0 58 16t33 33q8 -7 11 -16t3 -17q0 -34 -32.5 -57t-74.5 -23z" />
    <glyph glyph-name="ebreve" unicode="&#x115;" horiz-adv-x="341" 
d="M116 -44q-64 0 -98.5 34.5t-34.5 86.5q0 44 22.5 93.5t60.5 93t84 70.5t92 27q26 0 49.5 -13.5t23.5 -53.5q0 -38 -22 -71t-59 -59t-81.5 -42.5t-89.5 -21.5q-1 -4 -1.5 -8.5t-0.5 -14.5q0 -5 1.5 -17.5t8.5 -26.5t23 -24t44 -10q42 0 84.5 23.5t80 62.5t62.5 87l20 -16
q-27 -60 -69.5 -105t-94 -70t-105.5 -25zM74 137q26 3 58 18t61.5 38t48.5 50.5t19 55.5q0 11 -4 15t-13 4q-23 0 -48 -16.5t-49 -43t-43 -58.5t-30 -63zM314 419q-41 0 -66 16t-35.5 38t-10.5 41q0 18 7.5 30t20.5 19q5 -29 25 -54.5t61 -25.5q36 0 58 16t33 33
q8 -7 11 -16t3 -17q0 -34 -32.5 -57t-74.5 -23z" />
    <glyph glyph-name="Edotaccent" unicode="&#x116;" horiz-adv-x="533" 
d="M209 -87q-64 0 -112 25.5t-74.5 68t-26.5 94.5q0 44 19 87t53.5 78.5t81 60t101.5 32.5q-36 32 -54 71t-18 80q0 53 27 101t76 78t114 30q61 0 94 -29.5t33 -85.5q0 -39 -14 -74.5t-33.5 -57.5t-38.5 -22q-14 0 -26.5 12.5t-21.5 28.5q37 30 62.5 64t25.5 70
q0 30 -20 45.5t-52 15.5q-45 0 -75.5 -27.5t-46 -70t-15.5 -87.5q0 -43 16 -86.5t58 -75.5q-72 -11 -125 -49.5t-82 -89.5t-29 -101q0 -30 12.5 -63t41 -55.5t76.5 -22.5q55 0 108 30.5t97.5 80.5t71.5 106l27 -17q-37 -69 -87 -124.5t-111 -88t-133 -32.5zM446 766
q-19 0 -32 10.5t-13 29.5q0 23 23 37t46 14q21 0 30.5 -10t9.5 -26q0 -22 -20 -38.5t-44 -16.5z" />
    <glyph glyph-name="edotaccent" unicode="&#x117;" horiz-adv-x="341" 
d="M116 -44q-64 0 -98.5 34.5t-34.5 86.5q0 44 22.5 93.5t60.5 93t84 70.5t92 27q26 0 49.5 -13.5t23.5 -53.5q0 -38 -22 -71t-59 -59t-81.5 -42.5t-89.5 -21.5q-1 -4 -1.5 -8.5t-0.5 -14.5q0 -5 1.5 -17.5t8.5 -26.5t23 -24t44 -10q42 0 84.5 23.5t80 62.5t62.5 87l20 -16
q-27 -60 -69.5 -105t-94 -70t-105.5 -25zM74 137q26 3 58 18t61.5 38t48.5 50.5t19 55.5q0 11 -4 15t-13 4q-23 0 -48 -16.5t-49 -43t-43 -58.5t-30 -63zM280 418q-19 0 -32 10.5t-13 29.5q0 23 23 37t46 14q21 0 30.5 -10t9.5 -26q0 -22 -20 -38.5t-44 -16.5z" />
    <glyph glyph-name="Eogonek" unicode="&#x118;" horiz-adv-x="533" 
d="M209 -87q-64 0 -112 25.5t-74.5 68t-26.5 94.5q0 44 19 87t53.5 78.5t81 60t101.5 32.5q-36 32 -54 71t-18 80q0 53 27 101t76 78t114 30q61 0 94 -29.5t33 -85.5q0 -39 -14 -74.5t-33.5 -57.5t-38.5 -22q-14 0 -26.5 12.5t-21.5 28.5q37 30 62.5 64t25.5 70
q0 30 -20 45.5t-52 15.5q-45 0 -75.5 -27.5t-46 -70t-15.5 -87.5q0 -43 16 -86.5t58 -75.5q-72 -11 -125 -49.5t-82 -89.5t-29 -101q0 -30 12.5 -63t41 -55.5t76.5 -22.5q55 0 108 30.5t97.5 80.5t71.5 106l27 -17q-37 -69 -87 -124.5t-111 -88t-133 -32.5zM382 -181
q-34 0 -54.5 21t-20.5 53q0 33 23.5 54.5t54.5 24.5q-13 -10 -21 -24.5t-8 -32.5q0 -16 10.5 -29t31.5 -13q17 0 30.5 5.5t27.5 15.5q-1 -36 -21.5 -55.5t-52.5 -19.5z" />
    <glyph glyph-name="eogonek" unicode="&#x119;" horiz-adv-x="341" 
d="M116 -44q-64 0 -98.5 34.5t-34.5 86.5q0 44 22.5 93.5t60.5 93t84 70.5t92 27q26 0 49.5 -13.5t23.5 -53.5q0 -38 -22 -71t-59 -59t-81.5 -42.5t-89.5 -21.5q-1 -4 -1.5 -8.5t-0.5 -14.5q0 -5 1.5 -17.5t8.5 -26.5t23 -24t44 -10q42 0 84.5 23.5t80 62.5t62.5 87l20 -16
q-27 -60 -69.5 -105t-94 -70t-105.5 -25zM74 137q26 3 58 18t61.5 38t48.5 50.5t19 55.5q0 11 -4 15t-13 4q-23 0 -48 -16.5t-49 -43t-43 -58.5t-30 -63zM251 -153q-34 0 -54.5 21t-20.5 53q0 33 23.5 54.5t54.5 24.5q-13 -10 -21 -24.5t-8 -32.5q0 -16 10.5 -29t31.5 -13
q17 0 30.5 5.5t27.5 15.5q-1 -36 -21.5 -55.5t-52.5 -19.5z" />
    <glyph glyph-name="Ecaron" unicode="&#x11a;" horiz-adv-x="533" 
d="M209 -87q-64 0 -112 25.5t-74.5 68t-26.5 94.5q0 44 19 87t53.5 78.5t81 60t101.5 32.5q-36 32 -54 71t-18 80q0 53 27 101t76 78t114 30q61 0 94 -29.5t33 -85.5q0 -39 -14 -74.5t-33.5 -57.5t-38.5 -22q-14 0 -26.5 12.5t-21.5 28.5q37 30 62.5 64t25.5 70
q0 30 -20 45.5t-52 15.5q-45 0 -75.5 -27.5t-46 -70t-15.5 -87.5q0 -43 16 -86.5t58 -75.5q-72 -11 -125 -49.5t-82 -89.5t-29 -101q0 -30 12.5 -63t41 -55.5t76.5 -22.5q55 0 108 30.5t97.5 80.5t71.5 106l27 -17q-37 -69 -87 -124.5t-111 -88t-133 -32.5zM437 754
q-14 0 -31.5 12t-33.5 31t-26 39.5t-10 37.5q0 11 5.5 20.5t18.5 15.5q16 -30 34 -53t43 -45q30 12 55.5 27.5t46.5 32.5q8 -5 12.5 -13t4.5 -16q0 -15 -14 -30.5t-34.5 -29t-40 -21.5t-30.5 -8z" />
    <glyph glyph-name="ecaron" unicode="&#x11b;" horiz-adv-x="341" 
d="M116 -44q-64 0 -98.5 34.5t-34.5 86.5q0 44 22.5 93.5t60.5 93t84 70.5t92 27q26 0 49.5 -13.5t23.5 -53.5q0 -38 -22 -71t-59 -59t-81.5 -42.5t-89.5 -21.5q-1 -4 -1.5 -8.5t-0.5 -14.5q0 -5 1.5 -17.5t8.5 -26.5t23 -24t44 -10q42 0 84.5 23.5t80 62.5t62.5 87l20 -16
q-27 -60 -69.5 -105t-94 -70t-105.5 -25zM74 137q26 3 58 18t61.5 38t48.5 50.5t19 55.5q0 11 -4 15t-13 4q-23 0 -48 -16.5t-49 -43t-43 -58.5t-30 -63zM291 419q-14 0 -31.5 12t-33.5 31t-26 39.5t-10 37.5q0 11 5.5 20.5t18.5 15.5q16 -30 34 -53t43 -45q30 12 55.5 27.5
t46.5 32.5q8 -5 12.5 -13t4.5 -16q0 -15 -14 -30.5t-34.5 -29t-40 -21.5t-30.5 -8z" />
    <glyph glyph-name="Gcircumflex" unicode="&#x11c;" horiz-adv-x="585" 
d="M238 -87q-56 0 -103 29.5t-75 86t-28 135.5q0 77 24 156t66 150.5t96 127.5t114.5 88.5t121.5 32.5q44 0 70 -16.5t37.5 -43.5t11.5 -58q0 -35 -12.5 -70t-34 -58t-47.5 -23q-12 0 -22 7t-20 26q15 10 33.5 35t32.5 55.5t14 54.5q0 20 -12.5 33.5t-41.5 13.5
q-45 0 -92.5 -33.5t-90.5 -89t-77.5 -124t-54.5 -140t-20 -135.5q0 -91 39.5 -141.5t94.5 -50.5q41 0 75.5 26t61 68.5t42.5 92.5t20 98q-25 5 -51.5 7.5t-55.5 2.5q-16 0 -32 -0.5t-34 -1.5q9 35 28.5 51.5t51.5 16.5q30 0 60.5 -9.5t62 -20.5t61.5 -18l-10 -31
q-18 -55 -29.5 -91.5t-17.5 -62t-8 -46t-2 -42.5q0 -20 1 -41.5t2 -52.5q-30 4 -44.5 17.5t-19 31.5t-4.5 35v10t1 10q-35 -43 -80.5 -70.5t-102.5 -27.5zM625 744q-16 27 -33.5 45.5t-38.5 37.5q-27 -9 -51.5 -22t-50.5 -30q-7 5 -10 14t-3 14q0 15 13.5 30t33.5 27.5
t39 20.5t30 8q12 0 28.5 -10.5t32 -27t25.5 -35t10 -33.5q0 -10 -5.5 -21t-19.5 -18z" />
    <glyph glyph-name="gcircumflex" unicode="&#x11d;" horiz-adv-x="403" 
d="M50 -280q-25 0 -46.5 15t-21.5 49q0 32 18.5 57.5t49 47t65.5 39.5t68 34q11 27 21 58t19 67q-35 -44 -73.5 -73t-78.5 -29t-63.5 28t-23.5 74q0 53 26.5 99.5t68.5 83t90 57t92 20.5q32 0 48 -11.5t16 -26.5q0 -12 -7 -19t-9 -8q-10 11 -20.5 14.5t-24.5 3.5
q-39 0 -75 -22t-63.5 -56.5t-43.5 -71.5t-16 -67q0 -20 9 -30.5t22 -10.5q28 0 68 36.5t77 88.5q2 8 3.5 14.5t2.5 12.5q10 40 24 59t39 19q5 0 12.5 -1t16.5 -3q0 -18 -10 -59t-27 -95.5t-38 -111.5q31 13 63 36.5t59 57t41 74.5l18 -18q-16 -46 -49.5 -84t-72.5 -65.5
t-72 -42.5q-27 -66 -58.5 -120.5t-67 -87t-76.5 -32.5zM46 -234q18 0 49.5 34t68.5 115q-37 -18 -68 -37t-50 -40t-19 -44q0 -13 5.5 -20.5t13.5 -7.5zM393 397q-16 27 -33.5 45.5t-38.5 37.5q-27 -9 -51.5 -22t-50.5 -30q-7 5 -10 14t-3 14q0 15 13.5 30t33.5 27.5t39 20.5
t30 8q12 0 28.5 -10.5t32 -27t25.5 -35t10 -33.5q0 -10 -5.5 -21t-19.5 -18z" />
    <glyph glyph-name="Gbreve" unicode="&#x11e;" horiz-adv-x="585" 
d="M238 -87q-56 0 -103 29.5t-75 86t-28 135.5q0 77 24 156t66 150.5t96 127.5t114.5 88.5t121.5 32.5q44 0 70 -16.5t37.5 -43.5t11.5 -58q0 -35 -12.5 -70t-34 -58t-47.5 -23q-12 0 -22 7t-20 26q15 10 33.5 35t32.5 55.5t14 54.5q0 20 -12.5 33.5t-41.5 13.5
q-45 0 -92.5 -33.5t-90.5 -89t-77.5 -124t-54.5 -140t-20 -135.5q0 -91 39.5 -141.5t94.5 -50.5q41 0 75.5 26t61 68.5t42.5 92.5t20 98q-25 5 -51.5 7.5t-55.5 2.5q-16 0 -32 -0.5t-34 -1.5q9 35 28.5 51.5t51.5 16.5q30 0 60.5 -9.5t62 -20.5t61.5 -18l-10 -31
q-18 -55 -29.5 -91.5t-17.5 -62t-8 -46t-2 -42.5q0 -20 1 -41.5t2 -52.5q-30 4 -44.5 17.5t-19 31.5t-4.5 35v10t1 10q-35 -43 -80.5 -70.5t-102.5 -27.5zM561 758q-41 0 -66 16t-35.5 38t-10.5 41q0 18 7.5 30t20.5 19q5 -29 25 -54.5t61 -25.5q36 0 58 16t33 33
q8 -7 11 -16t3 -17q0 -34 -32.5 -57t-74.5 -23z" />
    <glyph glyph-name="gbreve" unicode="&#x11f;" horiz-adv-x="403" 
d="M50 -280q-25 0 -46.5 15t-21.5 49q0 32 18.5 57.5t49 47t65.5 39.5t68 34q11 27 21 58t19 67q-35 -44 -73.5 -73t-78.5 -29t-63.5 28t-23.5 74q0 53 26.5 99.5t68.5 83t90 57t92 20.5q32 0 48 -11.5t16 -26.5q0 -12 -7 -19t-9 -8q-10 11 -20.5 14.5t-24.5 3.5
q-39 0 -75 -22t-63.5 -56.5t-43.5 -71.5t-16 -67q0 -20 9 -30.5t22 -10.5q28 0 68 36.5t77 88.5q2 8 3.5 14.5t2.5 12.5q10 40 24 59t39 19q5 0 12.5 -1t16.5 -3q0 -18 -10 -59t-27 -95.5t-38 -111.5q31 13 63 36.5t59 57t41 74.5l18 -18q-16 -46 -49.5 -84t-72.5 -65.5
t-72 -42.5q-27 -66 -58.5 -120.5t-67 -87t-76.5 -32.5zM46 -234q18 0 49.5 34t68.5 115q-37 -18 -68 -37t-50 -40t-19 -44q0 -13 5.5 -20.5t13.5 -7.5zM330 405q-41 0 -66 16t-35.5 38t-10.5 41q0 18 7.5 30t20.5 19q5 -29 25 -54.5t61 -25.5q36 0 58 16t33 33q8 -7 11 -16
t3 -17q0 -34 -32.5 -57t-74.5 -23z" />
    <glyph glyph-name="Gdotaccent" unicode="&#x120;" horiz-adv-x="585" 
d="M238 -87q-56 0 -103 29.5t-75 86t-28 135.5q0 77 24 156t66 150.5t96 127.5t114.5 88.5t121.5 32.5q44 0 70 -16.5t37.5 -43.5t11.5 -58q0 -35 -12.5 -70t-34 -58t-47.5 -23q-12 0 -22 7t-20 26q15 10 33.5 35t32.5 55.5t14 54.5q0 20 -12.5 33.5t-41.5 13.5
q-45 0 -92.5 -33.5t-90.5 -89t-77.5 -124t-54.5 -140t-20 -135.5q0 -91 39.5 -141.5t94.5 -50.5q41 0 75.5 26t61 68.5t42.5 92.5t20 98q-25 5 -51.5 7.5t-55.5 2.5q-16 0 -32 -0.5t-34 -1.5q9 35 28.5 51.5t51.5 16.5q30 0 60.5 -9.5t62 -20.5t61.5 -18l-10 -31
q-18 -55 -29.5 -91.5t-17.5 -62t-8 -46t-2 -42.5q0 -20 1 -41.5t2 -52.5q-30 4 -44.5 17.5t-19 31.5t-4.5 35v10t1 10q-35 -43 -80.5 -70.5t-102.5 -27.5zM524 766q-19 0 -32 10.5t-13 29.5q0 23 23 37t46 14q21 0 30.5 -10t9.5 -26q0 -22 -20 -38.5t-44 -16.5z" />
    <glyph glyph-name="gdotaccent" unicode="&#x121;" horiz-adv-x="403" 
d="M50 -280q-25 0 -46.5 15t-21.5 49q0 32 18.5 57.5t49 47t65.5 39.5t68 34q11 27 21 58t19 67q-35 -44 -73.5 -73t-78.5 -29t-63.5 28t-23.5 74q0 53 26.5 99.5t68.5 83t90 57t92 20.5q32 0 48 -11.5t16 -26.5q0 -12 -7 -19t-9 -8q-10 11 -20.5 14.5t-24.5 3.5
q-39 0 -75 -22t-63.5 -56.5t-43.5 -71.5t-16 -67q0 -20 9 -30.5t22 -10.5q28 0 68 36.5t77 88.5q2 8 3.5 14.5t2.5 12.5q10 40 24 59t39 19q5 0 12.5 -1t16.5 -3q0 -18 -10 -59t-27 -95.5t-38 -111.5q31 13 63 36.5t59 57t41 74.5l18 -18q-16 -46 -49.5 -84t-72.5 -65.5
t-72 -42.5q-27 -66 -58.5 -120.5t-67 -87t-76.5 -32.5zM46 -234q18 0 49.5 34t68.5 115q-37 -18 -68 -37t-50 -40t-19 -44q0 -13 5.5 -20.5t13.5 -7.5zM296 404q-19 0 -32 10.5t-13 29.5q0 23 23 37t46 14q21 0 30.5 -10t9.5 -26q0 -22 -20 -38.5t-44 -16.5z" />
    <glyph glyph-name="uni0122" unicode="&#x122;" horiz-adv-x="585" 
d="M238 -87q-56 0 -103 29.5t-75 86t-28 135.5q0 77 24 156t66 150.5t96 127.5t114.5 88.5t121.5 32.5q44 0 70 -16.5t37.5 -43.5t11.5 -58q0 -35 -12.5 -70t-34 -58t-47.5 -23q-12 0 -22 7t-20 26q15 10 33.5 35t32.5 55.5t14 54.5q0 20 -12.5 33.5t-41.5 13.5
q-45 0 -92.5 -33.5t-90.5 -89t-77.5 -124t-54.5 -140t-20 -135.5q0 -91 39.5 -141.5t94.5 -50.5q41 0 75.5 26t61 68.5t42.5 92.5t20 98q-25 5 -51.5 7.5t-55.5 2.5q-16 0 -32 -0.5t-34 -1.5q9 35 28.5 51.5t51.5 16.5q30 0 60.5 -9.5t62 -20.5t61.5 -18l-10 -31
q-18 -55 -29.5 -91.5t-17.5 -62t-8 -46t-2 -42.5q0 -20 1 -41.5t2 -52.5q-30 4 -44.5 17.5t-19 31.5t-4.5 35v10t1 10q-35 -43 -80.5 -70.5t-102.5 -27.5zM201 -281q-13 8 -20 19.5t-7 24.5q0 20 9 44t23.5 41.5t30.5 17.5q13 0 22.5 -10t9.5 -23q-24 -27 -37 -52t-31 -62z
" />
    <glyph glyph-name="uni0123" unicode="&#x123;" horiz-adv-x="403" 
d="M50 -280q-25 0 -46.5 15t-21.5 49q0 32 18.5 57.5t49 47t65.5 39.5t68 34q11 27 21 58t19 67q-35 -44 -73.5 -73t-78.5 -29t-63.5 28t-23.5 74q0 53 26.5 99.5t68.5 83t90 57t92 20.5q32 0 48 -11.5t16 -26.5q0 -12 -7 -19t-9 -8q-10 11 -20.5 14.5t-24.5 3.5
q-39 0 -75 -22t-63.5 -56.5t-43.5 -71.5t-16 -67q0 -20 9 -30.5t22 -10.5q28 0 68 36.5t77 88.5q2 8 3.5 14.5t2.5 12.5q10 40 24 59t39 19q5 0 12.5 -1t16.5 -3q0 -18 -10 -59t-27 -95.5t-38 -111.5q31 13 63 36.5t59 57t41 74.5l18 -18q-16 -46 -49.5 -84t-72.5 -65.5
t-72 -42.5q-27 -66 -58.5 -120.5t-67 -87t-76.5 -32.5zM46 -234q18 0 49.5 34t68.5 115q-37 -18 -68 -37t-50 -40t-19 -44q0 -13 5.5 -20.5t13.5 -7.5zM280 386q-10 0 -20 8.5t-10 24.5q0 20 15 43.5t36.5 40.5t40.5 17q11 0 21 -8q-18 -26 -35 -58.5t-29 -61.5
q-7 -6 -19 -6z" />
    <glyph glyph-name="Hcircumflex" unicode="&#x124;" horiz-adv-x="663" 
d="M72 -87q6 36 13.5 73t19 82t29 103t42.5 135q-15 -1 -32.5 -3t-32.5 -3q0 32 24 49t63 25q4 14 7 22t7 20t12 33.5t21.5 61.5t35.5 105q2 5 7 20t5 28q0 8 -2.5 11t-10.5 3q-20 0 -40.5 -18t-37.5 -45.5t-27 -57t-10 -52.5q0 -8 2 -18t8 -27q-42 0 -60.5 18.5t-18.5 47.5
q0 34 20.5 68t53 62.5t69 46t67.5 17.5q32 0 44 -17t12 -38q0 -11 -2.5 -22t-5.5 -21l-73 -240q12 1 24.5 1h25.5q49 0 92 -2t83 -6q25 84 42.5 138t31 89.5t24.5 62.5q4 8 11.5 21.5t22 24t38.5 10.5q-13 -35 -31.5 -92.5t-37.5 -125t-36 -133.5q14 0 39.5 -1.5t47.5 -1.5
q-31 -31 -55 -38.5t-44 -7.5q-11 -46 -20 -88t-15 -78q-12 -64 -17.5 -111.5t-5.5 -77.5q0 -16 1.5 -28.5t3.5 -24.5q-51 5 -69.5 24.5t-18.5 68.5q0 23 3.5 51t12.5 66q8 37 22 85t34 112q-61 0 -101 -1t-70 -2t-60 -4q-1 -4 -5 -17t-14 -46t-30 -97t-54 -172
q-11 -37 -38 -52.5t-46 -15.5zM584 744q-16 27 -33.5 45.5t-38.5 37.5q-27 -9 -51.5 -22t-50.5 -30q-7 5 -10 14t-3 14q0 15 13.5 30t33.5 27.5t39 20.5t30 8q12 0 28.5 -10.5t32 -27t25.5 -35t10 -33.5q0 -10 -5.5 -21t-19.5 -18z" />
    <glyph glyph-name="hcircumflex" unicode="&#x125;" horiz-adv-x="494" 
d="M46 -38q-22 0 -31.5 34t-9.5 79q0 46 15.5 111t42 137t59 141t67 125.5t66 90.5t55.5 34q21 0 32 -23t11 -48q0 -27 -12.5 -66.5t-34.5 -84.5t-51.5 -88.5t-64 -79.5t-71.5 -58q-13 -34 -20.5 -63.5t-10.5 -55.5t-3 -51q0 -5 0.5 -10.5t0.5 -10.5q4 6 13 31t24.5 58.5
t38.5 66t54 54t71 21.5q34 0 53 -15.5t27 -38t8 -45.5q0 -32 -10.5 -60t-21 -52.5t-10.5 -46.5q0 -18 8 -25t19 -7q22 0 51.5 22t59 58.5t50.5 80.5l16 -17q-23 -50 -54 -92t-68 -67t-80 -25q-38 0 -58 20t-20 50q0 21 7.5 46.5t14.5 51.5t7 47q0 24 -10.5 33t-25.5 9
q-25 0 -45 -19.5t-36 -50.5t-30 -65.5t-28 -65.5t-29.5 -50.5t-35.5 -19.5zM140 330q26 23 50 55t44.5 66.5t36 67t24.5 58.5t10 40v1.5v1.5q-6 0 -25.5 -24.5t-45 -66t-51 -93.5t-43.5 -106zM437 738q-16 27 -33.5 45.5t-38.5 37.5q-27 -9 -51.5 -22t-50.5 -30q-7 5 -10 14
t-3 14q0 15 13.5 30t33.5 27.5t39 20.5t30 8q12 0 28.5 -10.5t32 -27t25.5 -35t10 -33.5q0 -10 -5.5 -21t-19.5 -18z" />
    <glyph glyph-name="Hbar" unicode="&#x126;" horiz-adv-x="664" 
d="M72 -87q9 57 21.5 111t29.5 112t39.5 127.5t52 155.5t66.5 197q2 5 7 20t5 28q0 14 -13 14q-25 0 -49 -16t-40 -42t-16 -57v-14t1 -14q-34 2 -52 15t-18 35q0 28 16.5 52.5t42.5 43t56.5 29t58.5 10.5q47 0 64.5 -17t17.5 -38q0 -11 -2.5 -22t-5.5 -21
q-24 -78 -42 -135.5t-31.5 -103t-26 -86t-26.5 -84.5t-31 -100t-41 -132q-11 -37 -38 -52.5t-46 -15.5zM506 -87q-51 5 -69.5 24.5t-18.5 68.5q0 28 9.5 76t24.5 108q11 42 23.5 86.5t26.5 90t28 89t27.5 83t25.5 71.5t21 55q4 8 11.5 21.5t22 24t38.5 10.5q-13 -35 -27 -79
t-29 -94.5t-29.5 -104.5t-28 -109t-24.5 -108q-16 -77 -26.5 -145t-10.5 -115q0 -16 1.5 -28.5t3.5 -24.5zM111 275q0 26 16 41.5t43.5 23.5t63.5 11t75 3q74 0 163 -6t186 -6q-18 -19 -40 -30t-55 -16.5t-84 -7t-126 -1.5q-44 0 -89.5 -1.5t-85.5 -4t-67 -6.5zM146 421
q2 24 34.5 41t82.5 25.5t103 8.5q93 0 172.5 -1.5t154.5 -6.5q-5 -23 -37 -34t-96 -14t-166 -3q-94 0 -150 -3.5t-98 -12.5z" />
    <glyph glyph-name="hbar" unicode="&#x127;" horiz-adv-x="495" 
d="M46 -38q-22 0 -31.5 34t-9.5 79q0 48 16.5 116t44.5 143.5t62.5 146.5t70.5 126q28 43 66.5 71.5t89.5 28.5q-44 -46 -84 -106t-74 -126t-59 -132.5t-39 -127.5t-14 -109v-15.5t1 -15.5q4 6 13 31t24.5 58.5t38.5 66t54 54t71 21.5q34 0 53 -15.5t27 -38t8 -45.5
q0 -32 -10.5 -60t-21 -52.5t-10.5 -46.5q0 -18 8 -25t19 -7q22 0 51.5 22t59 58.5t50.5 80.5l16 -17q-23 -50 -54 -92t-68 -67t-80 -25q-38 0 -58 20t-20 50q0 21 7.5 46.5t14.5 51.5t7 47q0 24 -10.5 33t-25.5 9q-25 0 -45 -19.5t-36 -50.5t-30 -65.5t-28 -65.5
t-29.5 -50.5t-35.5 -19.5zM28 515q22 42 74 52.5t121 11.5q39 1 80.5 -1t77.5 -4t57 -4q-37 -25 -70.5 -33t-56.5 -8q-68 0 -113.5 -1t-76 -2.5t-52 -4.5t-41.5 -6z" />
    <glyph glyph-name="Itilde" unicode="&#x128;" horiz-adv-x="503" 
d="M-18 -88q4 43 28 62.5t62 25.5t82 6q18 38 34.5 91.5t32 114.5t30 124.5t27.5 123t25 108.5t23 81q-51 -1 -90.5 -4t-74.5 -8t-72 -12q11 50 63 72t159 22q53 0 110 -4t105 -9t75 -9q-34 -32 -64 -39.5t-52 -7.5h-58.5t-49.5 -1q-7 -34 -15.5 -83t-19 -105t-20.5 -112
t-20 -104.5t-18 -80.5q-13 -52 -31 -95t-41 -65q53 -4 107 -10t119 -8q-40 -37 -76 -46.5t-59 -9.5q-67 0 -111.5 -0.5t-77.5 -2t-63.5 -5.5t-68.5 -10zM451 754q-28 0 -58 12t-59.5 24t-55.5 12q-17 0 -32.5 -2.5t-32.5 -10.5q12 30 35 44.5t55 14.5q28 0 57.5 -12
t58.5 -24t57 -12q30 0 59 10q-14 -27 -33.5 -41.5t-50.5 -14.5z" />
    <glyph glyph-name="itilde" unicode="&#x129;" horiz-adv-x="245" 
d="M80 -30q-44 0 -66 26t-22 63q0 23 8 58t22.5 73.5t33.5 72.5t41 55.5t44 21.5q12 0 21 -7.5t9 -21.5q0 -13 -15.5 -39t-36 -60t-36 -70.5t-15.5 -69.5q0 -32 11.5 -42.5t33.5 -10.5q34 0 74 34t83 119l15 -16q-35 -88 -89 -137t-116 -49zM287 399q-28 0 -58 12t-59.5 24
t-55.5 12q-17 0 -32.5 -2.5t-32.5 -10.5q12 30 35 44.5t55 14.5q28 0 57.5 -12t58.5 -24t57 -12q30 0 59 10q-14 -27 -33.5 -41.5t-50.5 -14.5z" />
    <glyph glyph-name="Imacron" unicode="&#x12a;" horiz-adv-x="503" 
d="M-18 -88q4 43 28 62.5t62 25.5t82 6q18 38 34.5 91.5t32 114.5t30 124.5t27.5 123t25 108.5t23 81q-51 -1 -90.5 -4t-74.5 -8t-72 -12q11 50 63 72t159 22q53 0 110 -4t105 -9t75 -9q-34 -32 -64 -39.5t-52 -7.5h-58.5t-49.5 -1q-7 -34 -15.5 -83t-19 -105t-20.5 -112
t-20 -104.5t-18 -80.5q-13 -52 -31 -95t-41 -65q53 -4 107 -10t119 -8q-40 -37 -76 -46.5t-59 -9.5q-67 0 -111.5 -0.5t-77.5 -2t-63.5 -5.5t-68.5 -10zM465 757q-23 0 -56.5 5.5t-70 13.5t-69.5 15.5t-56 10.5q11 30 50 30q36 0 78.5 -7.5t86 -18.5t78.5 -24
q-12 -25 -41 -25z" />
    <glyph glyph-name="imacron" unicode="&#x12b;" horiz-adv-x="245" 
d="M80 -30q-44 0 -66 26t-22 63q0 23 8 58t22.5 73.5t33.5 72.5t41 55.5t44 21.5q12 0 21 -7.5t9 -21.5q0 -13 -15.5 -39t-36 -60t-36 -70.5t-15.5 -69.5q0 -32 11.5 -42.5t33.5 -10.5q34 0 74 34t83 119l15 -16q-35 -88 -89 -137t-116 -49zM285 429q-23 0 -56.5 5.5
t-70 13.5t-69.5 15.5t-56 10.5q11 30 50 30q36 0 78.5 -7.5t86 -18.5t78.5 -24q-12 -25 -41 -25z" />
    <glyph glyph-name="Ibreve" unicode="&#x12c;" horiz-adv-x="503" 
d="M-18 -88q4 43 28 62.5t62 25.5t82 6q18 38 34.5 91.5t32 114.5t30 124.5t27.5 123t25 108.5t23 81q-51 -1 -90.5 -4t-74.5 -8t-72 -12q11 50 63 72t159 22q53 0 110 -4t105 -9t75 -9q-34 -32 -64 -39.5t-52 -7.5h-58.5t-49.5 -1q-7 -34 -15.5 -83t-19 -105t-20.5 -112
t-20 -104.5t-18 -80.5q-13 -52 -31 -95t-41 -65q53 -4 107 -10t119 -8q-40 -37 -76 -46.5t-59 -9.5q-67 0 -111.5 -0.5t-77.5 -2t-63.5 -5.5t-68.5 -10zM404 757q-41 0 -66 16t-35.5 38t-10.5 41q0 18 7.5 30t20.5 19q5 -29 25 -54.5t61 -25.5q36 0 58 16t33 33q8 -7 11 -16
t3 -17q0 -34 -32.5 -57t-74.5 -23z" />
    <glyph glyph-name="ibreve" unicode="&#x12d;" horiz-adv-x="245" 
d="M80 -30q-44 0 -66 26t-22 63q0 23 8 58t22.5 73.5t33.5 72.5t41 55.5t44 21.5q12 0 21 -7.5t9 -21.5q0 -13 -15.5 -39t-36 -60t-36 -70.5t-15.5 -69.5q0 -32 11.5 -42.5t33.5 -10.5q34 0 74 34t83 119l15 -16q-35 -88 -89 -137t-116 -49zM216 412q-41 0 -66 16t-35.5 38
t-10.5 41q0 18 7.5 30t20.5 19q5 -29 25 -54.5t61 -25.5q36 0 58 16t33 33q8 -7 11 -16t3 -17q0 -34 -32.5 -57t-74.5 -23z" />
    <glyph glyph-name="Iogonek" unicode="&#x12e;" horiz-adv-x="503" 
d="M-18 -88q4 43 28 62.5t62 25.5t82 6q18 38 34.5 91.5t32 114.5t30 124.5t27.5 123t25 108.5t23 81q-51 -1 -90.5 -4t-74.5 -8t-72 -12q11 50 63 72t159 22q53 0 110 -4t105 -9t75 -9q-34 -32 -64 -39.5t-52 -7.5h-58.5t-49.5 -1q-7 -34 -15.5 -83t-19 -105t-20.5 -112
t-20 -104.5t-18 -80.5q-13 -52 -31 -95t-41 -65q53 -4 107 -10t119 -8q-40 -37 -76 -46.5t-59 -9.5q-67 0 -111.5 -0.5t-77.5 -2t-63.5 -5.5t-68.5 -10zM201 -206q-34 0 -54.5 21t-20.5 53q0 33 23.5 54.5t54.5 24.5q-13 -10 -21 -24.5t-8 -32.5q0 -16 10.5 -29t31.5 -13
q17 0 30.5 5.5t27.5 15.5q-1 -36 -21.5 -55.5t-52.5 -19.5z" />
    <glyph glyph-name="iogonek" unicode="&#x12f;" horiz-adv-x="244" 
d="M80 -30q-44 0 -66 26t-22 63q0 23 8 58t22.5 73.5t33.5 72.5t41 55.5t44 21.5q12 0 21 -7t9 -22q0 -13 -15.5 -39t-36 -60t-36 -70.5t-15.5 -69.5q0 -32 11.5 -42.5t33.5 -10.5q34 0 74 34t83 119l15 -16q-35 -88 -89 -137t-116 -49zM198 421q-19 0 -34.5 9.5t-15.5 29.5
q0 24 26 41t54 17q18 0 30.5 -8t12.5 -29t-23 -40.5t-50 -19.5zM95 -153q-34 0 -54.5 21t-20.5 53q0 33 23.5 54.5t54.5 24.5q-13 -10 -21 -24.5t-8 -32.5q0 -16 10.5 -29t31.5 -13q17 0 30.5 5.5t27.5 15.5q-1 -36 -21.5 -55.5t-52.5 -19.5z" />
    <glyph glyph-name="Idotaccent" unicode="&#x130;" horiz-adv-x="503" 
d="M-18 -88q4 43 28 62.5t62 25.5t82 6q18 38 34.5 91.5t32 114.5t30 124.5t27.5 123t25 108.5t23 81q-51 -1 -90.5 -4t-74.5 -8t-72 -12q11 50 63 72t159 22q53 0 110 -4t105 -9t75 -9q-34 -32 -64 -39.5t-52 -7.5h-58.5t-49.5 -1q-7 -34 -15.5 -83t-19 -105t-20.5 -112
t-20 -104.5t-18 -80.5q-13 -52 -31 -95t-41 -65q53 -4 107 -10t119 -8q-40 -37 -76 -46.5t-59 -9.5q-67 0 -111.5 -0.5t-77.5 -2t-63.5 -5.5t-68.5 -10zM367 765q-19 0 -32 10.5t-13 29.5q0 23 23 37t46 14q21 0 30.5 -10t9.5 -26q0 -22 -20 -38.5t-44 -16.5z" />
    <glyph glyph-name="dotlessi" unicode="&#x131;" horiz-adv-x="245" 
d="M80 -30q-44 0 -66 26t-22 63q0 23 8 58t22.5 73.5t33.5 72.5t41 55.5t44 21.5q12 0 21 -7.5t9 -21.5q0 -13 -15.5 -39t-36 -60t-36 -70.5t-15.5 -69.5q0 -32 11.5 -42.5t33.5 -10.5q34 0 74 34t83 119l15 -16q-35 -88 -89 -137t-116 -49z" />
    <glyph glyph-name="IJ" unicode="&#x132;" horiz-adv-x="943" 
d="M-18 -88q4 43 28 62.5t62 25.5t82 6q18 38 34.5 91.5t32 114.5t30 124.5t27.5 123t25 108.5t23 81q-51 -1 -90.5 -4t-74.5 -8t-72 -12q11 50 63 72t159 22q53 0 110 -4t105 -9t75 -9q-34 -32 -64 -39.5t-52 -7.5h-58.5t-49.5 -1q-7 -34 -15.5 -83t-19 -105t-20.5 -112
t-20 -104.5t-18 -80.5q-13 -52 -31 -95t-41 -65q53 -4 107 -10t119 -8q-40 -37 -76 -46.5t-59 -9.5q-67 0 -111.5 -0.5t-77.5 -2t-63.5 -5.5t-68.5 -10zM607 -86q-26 0 -54.5 9.5t-48 38.5t-19.5 87q0 40 9.5 79.5t27.5 66t45 26.5q14 0 39 -11q-19 -47 -28.5 -88t-9.5 -73
q0 -40 17 -63t45 -23q24 0 44.5 21.5t40.5 76.5q15 43 32 103.5t34 128.5t32 136t27 126.5t19 98.5q-48 -1 -84.5 -3.5t-67 -7.5t-62.5 -12q7 47 50 67t130 20q42 0 87 -4t83.5 -9t59.5 -9q-16 -27 -44.5 -34t-46.5 -7q-16 0 -33 -0.5t-25 -0.5q7 -9 10 -19.5t3 -19.5
q0 -13 -7 -56.5t-19.5 -106t-29.5 -132.5t-37.5 -137t-44.5 -120q-27 -58 -55 -90.5t-58 -45.5t-61 -13z" />
    <glyph glyph-name="ij" unicode="&#x133;" horiz-adv-x="473" 
d="M111 -280q-29 0 -46 16.5t-17 42.5q0 38 34.5 78.5t89.5 73.5q17 11 35.5 20t37.5 16q17 41 31.5 92t25.5 111q-33 -61 -65.5 -105.5t-70 -69.5t-86.5 -25q-44 0 -66 26t-22 63q0 23 8 58t22.5 73.5t33.5 72.5t41 55.5t44 21.5q12 0 21 -7.5t9 -21.5q0 -13 -15.5 -39
t-36 -60t-36 -70.5t-15.5 -69.5q0 -32 11.5 -42.5t33.5 -10.5q30 0 65 26t73 93q20 34 33.5 71t25.5 69t26 52t33 20q14 0 22.5 -10.5t8.5 -26.5q0 -11 -5 -40.5t-14 -72.5t-22.5 -93t-30.5 -101q29 16 56.5 35t55 48.5t55.5 76.5l18 -12q-31 -64 -66 -99t-69.5 -54.5
t-65.5 -39.5q-22 -60 -52.5 -115.5t-68 -90.5t-80.5 -35zM100 -232q18 0 52 37t70 110q-67 -34 -100.5 -68.5t-33.5 -61.5q0 -10 3.5 -13.5t8.5 -3.5zM198 421q-19 0 -34.5 9.5t-15.5 29.5q0 24 26 41t54 17q18 0 30.5 -8t12.5 -29t-23 -40.5t-50 -19.5zM384 424
q-19 0 -34.5 9.5t-15.5 28.5q0 17 13 30.5t32 21.5t37 8q17 0 29 -8.5t12 -26.5q0 -25 -22 -44t-51 -19z" />
    <glyph glyph-name="Jcircumflex" unicode="&#x134;" horiz-adv-x="440" 
d="M104 -86q-26 0 -54.5 9.5t-48 38.5t-19.5 87q0 40 9.5 79.5t27.5 66t45 26.5q14 0 39 -11q-19 -47 -28.5 -88t-9.5 -73q0 -40 17 -63t45 -23q24 0 44.5 21.5t40.5 76.5q15 43 32 103.5t34 128.5t32 136t27 126.5t19 98.5q-48 -1 -84.5 -3.5t-67 -7.5t-62.5 -12
q7 47 50 67t130 20q42 0 87 -4t83.5 -9t59.5 -9q-16 -27 -44.5 -34t-46.5 -7q-16 0 -33 -0.5t-25 -0.5q7 -9 10 -19.5t3 -19.5q0 -13 -7 -56.5t-19.5 -106t-29.5 -132.5t-37.5 -137t-44.5 -120q-27 -58 -55 -90.5t-58 -45.5t-61 -13zM499 744q-16 27 -33.5 45.5t-38.5 37.5
q-27 -9 -51.5 -22t-50.5 -30q-7 5 -10 14t-3 14q0 15 13.5 30t33.5 27.5t39 20.5t30 8q12 0 28.5 -10.5t32 -27t25.5 -35t10 -33.5q0 -10 -5.5 -21t-19.5 -18z" />
    <glyph glyph-name="jcircumflex" unicode="&#x135;" horiz-adv-x="228" 
d="M-134 -280q-29 0 -46 16.5t-17 42.5q0 39 37 81.5t95 75.5q16 9 32 16.5t33 14.5q17 41 31.5 92t25.5 111q-8 -14 -17.5 -28t-17.5 -29l-17 27q18 34 32 70.5t27 68t27 51.5t33 20q14 0 22.5 -10.5t8.5 -26.5q0 -11 -5 -40.5t-14 -72.5t-22.5 -93t-30.5 -101
q29 16 56.5 35t55 48.5t55.5 76.5l18 -12q-31 -64 -66 -99t-69.5 -54.5t-65.5 -39.5q-22 -60 -52.5 -115.5t-68 -90.5t-80.5 -35zM-145 -232q18 0 52 37t70 110q-67 -34 -100.5 -68.5t-33.5 -61.5q0 -10 3.5 -13.5t8.5 -3.5zM251 404q-16 27 -33.5 45.5t-38.5 37.5
q-27 -9 -51.5 -22t-50.5 -30q-7 5 -10 14t-3 14q0 15 13.5 30t33.5 27.5t39 20.5t30 8q12 0 28.5 -10.5t32 -27t25.5 -35t10 -33.5q0 -10 -5.5 -21t-19.5 -18z" />
    <glyph glyph-name="uni0136" unicode="&#x136;" horiz-adv-x="637" 
d="M542 -87q-24 0 -54.5 24.5t-65 64.5t-67.5 88t-62.5 96.5t-50.5 88.5l-91 -294q-7 -24 -25.5 -34.5t-40.5 -13t-42 -2.5q14 31 28 66.5t31 85.5t41.5 121t59.5 172t85 240q2 7 7 19.5t5 23.5q0 9 -4.5 14t-15.5 5q-24 0 -45 -18.5t-38 -46t-26.5 -56.5t-9.5 -51
q0 -23 10 -46q-43 0 -61.5 18.5t-18.5 46.5q0 34 21 68.5t53.5 63t69 46t67.5 17.5q34 0 44.5 -18.5t10.5 -39.5q0 -11 -2 -21t-5 -19l-74 -240q11 7 25.5 18l43.5 33q56 44 108 92t96 98.5t76 99.5q12 -11 16 -27.5t4 -26.5q0 -31 -25.5 -67.5t-67 -75.5t-90.5 -77t-98 -71
t-88 -58q32 -49 61.5 -93t65.5 -86.5t84.5 -88t116.5 -97.5q-9 -17 -27 -29.5t-35 -12.5zM252 -259q-13 8 -20 19.5t-7 24.5q0 20 9 44t23.5 41.5t30.5 17.5q13 0 22.5 -10t9.5 -23q-24 -27 -37 -52t-31 -62z" />
    <glyph glyph-name="uni0137" unicode="&#x137;" horiz-adv-x="462" 
d="M317 -38q-31 0 -54 20t-37 50t-21 61.5t-7 54.5q14 3 35 9t43 16.5t36.5 26t14.5 37.5q0 18 -11.5 29t-32.5 11q-28 0 -53 -18.5t-46.5 -48.5t-39 -65t-31 -68t-22.5 -57q-11 -30 -21 -40.5t-29 -10.5q-7 0 -16.5 4t-16 20t-6.5 51q0 61 17 134t45.5 148.5t62.5 144.5
t69 124t65.5 87t50.5 32q17 0 28.5 -20.5t11.5 -52.5q0 -34 -15 -75.5t-42.5 -84t-65.5 -80.5t-84 -65q-28 -65 -43 -128.5t-19 -112.5q18 41 41 84t51 80.5t60.5 60.5t69.5 23q40 0 70 -28t30 -70q0 -30 -16 -52t-39.5 -36.5t-47.5 -21.5t-41 -8q3 -13 8.5 -33t14.5 -39
t23 -32t33 -13q25 0 51.5 23t52 61t45.5 84l14 -17q-17 -50 -46.5 -96t-65.5 -74.5t-74 -28.5zM174 404q27 24 57 59.5t51.5 76t22.5 77.5v1.5v1.5q-10 -4 -31.5 -34.5t-47.5 -77.5t-52 -104zM115 -221q-13 8 -20 19.5t-7 24.5q0 20 9 44t23.5 41.5t30.5 17.5q13 0 22.5 -10
t9.5 -23q-24 -27 -37 -52t-31 -62z" />
    <glyph glyph-name="kgreenlandic" unicode="&#x138;" horiz-adv-x="391" 
d="M240 -38q-39 0 -67.5 20t-44 53.5t-15.5 71.5q0 36 11 68l21 -20q-23 -25 -44.5 -55.5t-40 -60.5t-33.5 -54q-19 0 -36 6.5t-29 22.5q1 5 11.5 30.5t23.5 61t23 74.5t10 71q7 8 21.5 16t30.5 8q35 0 35 -30q0 -12 -4.5 -35.5t-12.5 -53.5q27 35 58.5 66t66.5 50.5
t72 19.5q31 0 48 -15t17 -38q0 -33 -21.5 -46.5t-51.5 -15.5q0 20 -10.5 31.5t-30.5 11.5q-36 0 -55.5 -29t-19.5 -67q0 -26 10 -52.5t29.5 -44t47.5 -17.5q31 0 58 23t51.5 61t46.5 84l17 -17q-18 -50 -46 -96t-65 -74.5t-82 -28.5z" />
    <glyph glyph-name="Lacute" unicode="&#x139;" horiz-adv-x="610" 
d="M437 -87q-37 0 -83 15t-94.5 36t-94.5 40q-25 -27 -54 -42t-62 -15q-35 0 -60.5 15.5t-39 37.5t-13.5 40q0 20 18 35t64 15q27 0 59.5 -5.5t66.5 -14.5q23 40 42.5 94t38.5 113.5t38 116.5q-50 17 -77 47.5t-27 61.5q0 20 10 39.5t29 33t45 13.5q-13 -16 -16.5 -36
t-3.5 -32q0 -33 15 -56t37 -36q19 57 40.5 109.5t48 93t59 64.5t73.5 24q23 0 48.5 -9.5t44 -32.5t18.5 -66q0 -34 -14.5 -73t-45.5 -74.5t-79.5 -59t-117.5 -25.5h-4.5h-4.5q-19 -58 -40 -117t-45 -113t-52 -96q39 -11 86.5 -25t95 -23.5t83.5 -9.5q24 0 44.5 5.5
t43.5 16.5q-20 -56 -49.5 -80.5t-70.5 -24.5zM39 -16q26 0 42 11.5t32 28.5q-31 11 -58 18.5t-47 7.5q-19 0 -27.5 -7t-8.5 -17q0 -16 20 -29t47 -13zM352 413q44 3 78 28t58 60t36.5 71.5t12.5 63.5q0 26 -10 35.5t-23 9.5q-29 0 -55 -37t-49.5 -97.5t-47.5 -133.5z
M549 748q-13 5 -18.5 16.5t-5.5 16.5q0 8 10 26.5t26 39t33.5 35t33.5 14.5q11 0 19.5 -7.5t10.5 -27.5q-35 -34 -61.5 -59.5t-47.5 -53.5z" />
    <glyph glyph-name="lacute" unicode="&#x13a;" horiz-adv-x="245" 
d="M86 -30q-47 0 -65.5 31.5t-18.5 74.5q0 49 18 115t47.5 138.5t65 142t71.5 125.5t66.5 89.5t49.5 33.5q13 0 22 -13.5t14.5 -32t5.5 -34.5q0 -27 -13.5 -70.5t-38 -95.5t-58 -106.5t-74 -103.5t-86.5 -85q-4 -25 -7.5 -49.5t-3.5 -44.5q0 -36 12 -52.5t31 -16.5
q25 0 51.5 23.5t51 60t42.5 75.5l24 -13q-43 -89 -96 -140.5t-111 -51.5zM110 241q34 37 64.5 80.5t56 88.5t44.5 87t29.5 75.5t11.5 53.5v1.5v1.5q-8 0 -25.5 -22.5t-41.5 -61.5t-49.5 -89t-49 -105.5t-40.5 -109.5zM373 748q-13 5 -18.5 16.5t-5.5 16.5q0 8 10 26.5t26 39
t33.5 35t33.5 14.5q11 0 19.5 -7.5t10.5 -27.5q-35 -34 -61.5 -59.5t-47.5 -53.5z" />
    <glyph glyph-name="uni013B" unicode="&#x13b;" horiz-adv-x="610" 
d="M437 -87q-37 0 -83 15t-94.5 36t-94.5 40q-25 -27 -54 -42t-62 -15q-35 0 -60.5 15.5t-39 37.5t-13.5 40q0 20 18 35t64 15q27 0 59.5 -5.5t66.5 -14.5q23 40 42.5 94t38.5 113.5t38 116.5q-50 17 -77 47.5t-27 61.5q0 20 10 39.5t29 33t45 13.5q-13 -16 -16.5 -36
t-3.5 -32q0 -33 15 -56t37 -36q19 57 40.5 109.5t48 93t59 64.5t73.5 24q23 0 48.5 -9.5t44 -32.5t18.5 -66q0 -34 -14.5 -73t-45.5 -74.5t-79.5 -59t-117.5 -25.5h-4.5h-4.5q-19 -58 -40 -117t-45 -113t-52 -96q39 -11 86.5 -25t95 -23.5t83.5 -9.5q24 0 44.5 5.5
t43.5 16.5q-20 -56 -49.5 -80.5t-70.5 -24.5zM39 -16q26 0 42 11.5t32 28.5q-31 11 -58 18.5t-47 7.5q-19 0 -27.5 -7t-8.5 -17q0 -16 20 -29t47 -13zM352 413q44 3 78 28t58 60t36.5 71.5t12.5 63.5q0 26 -10 35.5t-23 9.5q-29 0 -55 -37t-49.5 -97.5t-47.5 -133.5z
M168 -246q-13 8 -20 19.5t-7 24.5q0 20 9 44t23.5 41.5t30.5 17.5q13 0 22.5 -10t9.5 -23q-24 -27 -37 -52t-31 -62z" />
    <glyph glyph-name="uni013C" unicode="&#x13c;" horiz-adv-x="245" 
d="M86 -30q-47 0 -65.5 31.5t-18.5 74.5q0 49 18 115t47.5 138.5t65 142t71.5 125.5t66.5 89.5t49.5 33.5q13 0 22 -13.5t14.5 -32t5.5 -34.5q0 -27 -13.5 -70.5t-38 -95.5t-58 -106.5t-74 -103.5t-86.5 -85q-4 -25 -7.5 -49.5t-3.5 -44.5q0 -36 12 -52.5t31 -16.5
q25 0 51.5 23.5t51 60t42.5 75.5l24 -13q-43 -89 -96 -140.5t-111 -51.5zM110 241q34 37 64.5 80.5t56 88.5t44.5 87t29.5 75.5t11.5 53.5v1.5v1.5q-8 0 -25.5 -22.5t-41.5 -61.5t-49.5 -89t-49 -105.5t-40.5 -109.5zM33 -208q-13 8 -20 19.5t-7 24.5q0 20 9 44t23.5 41.5
t30.5 17.5q13 0 22.5 -10t9.5 -23q-24 -27 -37 -52t-31 -62z" />
    <glyph glyph-name="Lcaron" unicode="&#x13d;" horiz-adv-x="610" 
d="M437 -87q-37 0 -83 15t-94.5 36t-94.5 40q-25 -27 -54 -42t-62 -15q-35 0 -60.5 15.5t-39 37.5t-13.5 40q0 20 18 35t64 15q27 0 59.5 -5.5t66.5 -14.5q23 40 42.5 94t38.5 113.5t38 116.5q-50 17 -77 47.5t-27 61.5q0 20 10 39.5t29 33t45 13.5q-13 -16 -16.5 -36
t-3.5 -32q0 -33 15 -56t37 -36q19 57 40.5 109.5t48 93t59 64.5t73.5 24q23 0 48.5 -9.5t44 -32.5t18.5 -66q0 -34 -14.5 -73t-45.5 -74.5t-79.5 -59t-117.5 -25.5h-4.5h-4.5q-19 -58 -40 -117t-45 -113t-52 -96q39 -11 86.5 -25t95 -23.5t83.5 -9.5q24 0 44.5 5.5
t43.5 16.5q-20 -56 -49.5 -80.5t-70.5 -24.5zM39 -16q26 0 42 11.5t32 28.5q-31 11 -58 18.5t-47 7.5q-19 0 -27.5 -7t-8.5 -17q0 -16 20 -29t47 -13zM352 413q44 3 78 28t58 60t36.5 71.5t12.5 63.5q0 26 -10 35.5t-23 9.5q-29 0 -55 -37t-49.5 -97.5t-47.5 -133.5z
M668 555q-10 0 -20 8.5t-10 24.5q0 20 15 43.5t36.5 40.5t40.5 17q11 0 21 -8q-18 -26 -35 -58.5t-29 -61.5q-7 -6 -19 -6z" />
    <glyph glyph-name="lcaron" unicode="&#x13e;" horiz-adv-x="245" 
d="M86 -30q-47 0 -65.5 31.5t-18.5 74.5q0 49 18 115t47.5 138.5t65 142t71.5 125.5t66.5 89.5t49.5 33.5q13 0 22 -13.5t14.5 -32t5.5 -34.5q0 -27 -13.5 -70.5t-38 -95.5t-58 -106.5t-74 -103.5t-86.5 -85q-4 -25 -7.5 -49.5t-3.5 -44.5q0 -36 12 -52.5t31 -16.5
q25 0 51.5 23.5t51 60t42.5 75.5l24 -13q-43 -89 -96 -140.5t-111 -51.5zM110 241q34 37 64.5 80.5t56 88.5t44.5 87t29.5 75.5t11.5 53.5v1.5v1.5q-8 0 -25.5 -22.5t-41.5 -61.5t-49.5 -89t-49 -105.5t-40.5 -109.5zM412 559q-10 0 -20 8.5t-10 24.5q0 20 15 43.5
t36.5 40.5t40.5 17q11 0 21 -8q-18 -26 -35 -58.5t-29 -61.5q-7 -6 -19 -6z" />
    <glyph glyph-name="Ldot" unicode="&#x13f;" horiz-adv-x="610" 
d="M437 -87q-37 0 -83 15t-94.5 36t-94.5 40q-25 -27 -54 -42t-62 -15q-35 0 -60.5 15.5t-39 37.5t-13.5 40q0 20 18 35t64 15q27 0 59.5 -5.5t66.5 -14.5q23 40 42.5 94t38.5 113.5t38 116.5q-50 17 -77 47.5t-27 61.5q0 20 10 39.5t29 33t45 13.5q-13 -16 -16.5 -36
t-3.5 -32q0 -33 15 -56t37 -36q19 57 40.5 109.5t48 93t59 64.5t73.5 24q23 0 48.5 -9.5t44 -32.5t18.5 -66q0 -34 -14.5 -73t-45.5 -74.5t-79.5 -59t-117.5 -25.5h-4.5h-4.5q-19 -58 -40 -117t-45 -113t-52 -96q39 -11 86.5 -25t95 -23.5t83.5 -9.5q24 0 44.5 5.5
t43.5 16.5q-20 -56 -49.5 -80.5t-70.5 -24.5zM39 -16q26 0 42 11.5t32 28.5q-31 11 -58 18.5t-47 7.5q-19 0 -27.5 -7t-8.5 -17q0 -16 20 -29t47 -13zM352 413q44 3 78 28t58 60t36.5 71.5t12.5 63.5q0 26 -10 35.5t-23 9.5q-29 0 -55 -37t-49.5 -97.5t-47.5 -133.5z
M496 230q-24 0 -32.5 12t-8.5 25q0 11 10.5 22.5t25.5 19t28 7.5q11 0 22 -5.5t11 -23.5q0 -8 -7 -21.5t-19.5 -24.5t-29.5 -11z" />
    <glyph glyph-name="ldot" unicode="&#x140;" horiz-adv-x="336" 
d="M105 -30q-54 0 -78.5 34.5t-24.5 81.5q0 48 18 113t47.5 136.5t65 140t71.5 123.5t66.5 88t49.5 33q13 0 22 -13.5t14.5 -32t5.5 -34.5q0 -27 -13.5 -70.5t-38 -95.5t-58 -106.5t-74 -103.5t-86.5 -85q-4 -22 -7.5 -44.5t-3.5 -39.5q0 -41 17 -60t45 -19q39 0 84.5 29
t89.5 74.5t76 94.5l24 -13q-44 -69 -95 -121t-106 -81t-111 -29zM110 241q31 34 59.5 73.5t53.5 81t45 81t33 73.5t17 58q1 6 2 13t-4 8q-7 2 -25 -20t-41.5 -61.5t-49.5 -90t-49.5 -106.5t-40.5 -110zM318 292q-24 0 -32.5 12t-8.5 25q0 11 10.5 22.5t25.5 19t28 7.5
q11 0 22 -5.5t11 -23.5q0 -8 -7 -21.5t-19.5 -24.5t-29.5 -11z" />
    <glyph glyph-name="Lslash" unicode="&#x141;" horiz-adv-x="611" 
d="M437 -87q-37 0 -83 15t-94.5 36t-94.5 40q-25 -27 -54 -42t-62 -15q-35 0 -60.5 15.5t-39 37.5t-13.5 40q0 20 18 35t64 15q27 0 59.5 -5.5t66.5 -14.5q20 34 39.5 85t39 111.5t38.5 122.5q33 107 64.5 172.5t61.5 100t60 46.5t60 12q-58 -56 -95.5 -146.5t-73.5 -200.5
q-15 -46 -31.5 -92t-33 -88.5t-34 -77.5t-35.5 -61q39 -11 86.5 -25t95 -23.5t83.5 -9.5q24 0 44.5 5.5t43.5 16.5q-20 -56 -49.5 -80.5t-70.5 -24.5zM39 -16q26 0 42 11.5t32 28.5q-31 11 -58 18.5t-47 7.5q-19 0 -27.5 -7t-8.5 -17q0 -16 20 -29t47 -13zM131 328
q7 34 50.5 54t116 29t164.5 9q20 0 42.5 -1t33.5 -2q0 -21 -13 -31t-45.5 -14.5t-93.5 -9.5q-55 -4 -93.5 -8t-75 -10t-86.5 -16z" />
    <glyph glyph-name="lslash" unicode="&#x142;" horiz-adv-x="246" 
d="M86 -30q-47 0 -65.5 31.5t-18.5 74.5q0 48 17.5 113t46.5 137t64 140.5t70 124.5q31 49 55 77t47 40t50 12q-48 -70 -91 -146t-79 -153q-40 -86 -70.5 -173.5t-30.5 -162.5q0 -36 12 -52.5t31 -16.5q25 0 51.5 23.5t51 60t42.5 75.5l24 -13q-43 -89 -96 -140.5
t-111 -51.5zM97 627q15 28 43 41t67 17t85 6q39 2 80.5 0t77.5 -4.5t57 -4.5q-23 -16 -41.5 -24.5t-40 -12t-53 -4t-80.5 -0.5q-43 0 -73.5 -1t-58 -4t-63.5 -9z" />
    <glyph glyph-name="Nacute" unicode="&#x143;" horiz-adv-x="674" 
d="M56 -87q15 50 34 109.5t44 140t58 191.5t76 262q1 3 4 15t3 24q0 8 -2.5 11t-10.5 3q-21 0 -40.5 -17t-35 -42.5t-24 -53t-8.5 -49.5q0 -24 10 -47q-44 0 -62 18.5t-18 46.5q0 34 21 68.5t53.5 63t68 46t64.5 17.5q35 0 57.5 -25.5t37 -69.5t24.5 -100t19 -118
q12 -80 19 -127.5t11.5 -75.5t8 -47t7.5 -43q12 48 24.5 101.5t25.5 108.5t25.5 107.5t25.5 98.5t25.5 81.5t24.5 56.5q9 16 28.5 34.5t52.5 18.5q-17 -45 -38.5 -111.5t-43.5 -144t-42.5 -158t-36.5 -156t-25.5 -137.5t-9.5 -101q-37 0 -60.5 17.5t-35.5 68.5q-4 17 -12 57
t-18 94.5t-21 114.5t-21 117.5t-18 103t-13 69.5q-45 -164 -77 -277.5t-56 -185t-43 -110.5t-38 -54t-42 -15zM516 748q-13 5 -18.5 16.5t-5.5 16.5q0 8 10 26.5t26 39t33.5 35t33.5 14.5q11 0 19.5 -7.5t10.5 -27.5q-35 -34 -61.5 -59.5t-47.5 -53.5z" />
    <glyph glyph-name="nacute" unicode="&#x144;" horiz-adv-x="473" 
d="M337 -20q-39 0 -59.5 19.5t-20.5 49.5q0 20 7 42.5t14 45.5t7 44q0 22 -10.5 30.5t-24.5 8.5q-30 0 -61.5 -24.5t-61 -61.5t-55.5 -77t-45 -72q-19 0 -36 6.5t-29 22.5q1 5 11.5 30.5t23.5 61t23 74.5t10 71q7 8 21.5 16t30.5 8q35 0 35 -30q0 -12 -4.5 -35.5
t-12.5 -53.5q26 35 57 66t64.5 50.5t67.5 19.5q43 0 63.5 -29t20.5 -64q0 -30 -10 -56t-19.5 -49t-9.5 -45q0 -16 7.5 -22.5t16.5 -6.5q24 0 50 23t49.5 58.5t41.5 71.5l17 -14q-21 -49 -47.5 -89.5t-59 -65t-72.5 -24.5zM272 364q-13 5 -18.5 16.5t-5.5 16.5q0 8 10 26.5
t26 39t33.5 35t33.5 14.5q11 0 19.5 -7.5t10.5 -27.5q-35 -34 -61.5 -59.5t-47.5 -53.5z" />
    <glyph glyph-name="uni0145" unicode="&#x145;" horiz-adv-x="674" 
d="M56 -87q15 50 34 109.5t44 140t58 191.5t76 262q1 3 4 15t3 24q0 8 -2.5 11t-10.5 3q-21 0 -40.5 -17t-35 -42.5t-24 -53t-8.5 -49.5q0 -24 10 -47q-44 0 -62 18.5t-18 46.5q0 34 21 68.5t53.5 63t68 46t64.5 17.5q35 0 57.5 -25.5t37 -69.5t24.5 -100t19 -118
q12 -80 19 -127.5t11.5 -75.5t8 -47t7.5 -43q12 48 24.5 101.5t25.5 108.5t25.5 107.5t25.5 98.5t25.5 81.5t24.5 56.5q9 16 28.5 34.5t52.5 18.5q-17 -45 -38.5 -111.5t-43.5 -144t-42.5 -158t-36.5 -156t-25.5 -137.5t-9.5 -101q-37 0 -60.5 17.5t-35.5 68.5q-4 17 -12 57
t-18 94.5t-21 114.5t-21 117.5t-18 103t-13 69.5q-45 -164 -77 -277.5t-56 -185t-43 -110.5t-38 -54t-42 -15zM235 -235q-13 8 -20 19.5t-7 24.5q0 20 9 44t23.5 41.5t30.5 17.5q13 0 22.5 -10t9.5 -23q-24 -27 -37 -52t-31 -62z" />
    <glyph glyph-name="uni0146" unicode="&#x146;" horiz-adv-x="473" 
d="M337 -20q-39 0 -59.5 19.5t-20.5 49.5q0 20 7 42.5t14 45.5t7 44q0 22 -10.5 30.5t-24.5 8.5q-30 0 -61.5 -24.5t-61 -61.5t-55.5 -77t-45 -72q-19 0 -36 6.5t-29 22.5q1 5 11.5 30.5t23.5 61t23 74.5t10 71q7 8 21.5 16t30.5 8q35 0 35 -30q0 -12 -4.5 -35.5
t-12.5 -53.5q26 35 57 66t64.5 50.5t67.5 19.5q43 0 63.5 -29t20.5 -64q0 -30 -10 -56t-19.5 -49t-9.5 -45q0 -16 7.5 -22.5t16.5 -6.5q24 0 50 23t49.5 58.5t41.5 71.5l17 -14q-21 -49 -47.5 -89.5t-59 -65t-72.5 -24.5zM109 -203q-13 8 -20 19.5t-7 24.5q0 20 9 44
t23.5 41.5t30.5 17.5q13 0 22.5 -10t9.5 -23q-24 -27 -37 -52t-31 -62z" />
    <glyph glyph-name="Ncaron" unicode="&#x147;" horiz-adv-x="674" 
d="M56 -87q15 50 34 109.5t44 140t58 191.5t76 262q1 3 4 15t3 24q0 8 -2.5 11t-10.5 3q-21 0 -40.5 -17t-35 -42.5t-24 -53t-8.5 -49.5q0 -24 10 -47q-44 0 -62 18.5t-18 46.5q0 34 21 68.5t53.5 63t68 46t64.5 17.5q35 0 57.5 -25.5t37 -69.5t24.5 -100t19 -118
q12 -80 19 -127.5t11.5 -75.5t8 -47t7.5 -43q12 48 24.5 101.5t25.5 108.5t25.5 107.5t25.5 98.5t25.5 81.5t24.5 56.5q9 16 28.5 34.5t52.5 18.5q-17 -45 -38.5 -111.5t-43.5 -144t-42.5 -158t-36.5 -156t-25.5 -137.5t-9.5 -101q-37 0 -60.5 17.5t-35.5 68.5q-4 17 -12 57
t-18 94.5t-21 114.5t-21 117.5t-18 103t-13 69.5q-45 -164 -77 -277.5t-56 -185t-43 -110.5t-38 -54t-42 -15zM495 754q-14 0 -31.5 12t-33.5 31t-26 39.5t-10 37.5q0 11 5.5 20.5t18.5 15.5q16 -30 34 -53t43 -45q30 12 55.5 27.5t46.5 32.5q8 -5 12.5 -13t4.5 -16
q0 -15 -14 -30.5t-34.5 -29t-40 -21.5t-30.5 -8z" />
    <glyph glyph-name="ncaron" unicode="&#x148;" horiz-adv-x="473" 
d="M337 -20q-39 0 -59.5 19.5t-20.5 49.5q0 20 7 42.5t14 45.5t7 44q0 22 -10.5 30.5t-24.5 8.5q-30 0 -61.5 -24.5t-61 -61.5t-55.5 -77t-45 -72q-19 0 -36 6.5t-29 22.5q1 5 11.5 30.5t23.5 61t23 74.5t10 71q7 8 21.5 16t30.5 8q35 0 35 -30q0 -12 -4.5 -35.5
t-12.5 -53.5q26 35 57 66t64.5 50.5t67.5 19.5q43 0 63.5 -29t20.5 -64q0 -30 -10 -56t-19.5 -49t-9.5 -45q0 -16 7.5 -22.5t16.5 -6.5q24 0 50 23t49.5 58.5t41.5 71.5l17 -14q-21 -49 -47.5 -89.5t-59 -65t-72.5 -24.5zM275 364q-14 0 -31.5 12t-33.5 31t-26 39.5
t-10 37.5q0 11 5.5 20.5t18.5 15.5q16 -30 34 -53t43 -45q30 12 55.5 27.5t46.5 32.5q8 -5 12.5 -13t4.5 -16q0 -15 -14 -30.5t-34.5 -29t-40 -21.5t-30.5 -8z" />
    <glyph glyph-name="napostrophe" unicode="&#x149;" horiz-adv-x="537" 
d="M32 267q-13 8 -20 19.5t-7 24.5q0 20 9 44t23.5 41.5t30.5 17.5q13 0 22.5 -10t9.5 -23q-24 -27 -37 -52t-31 -62zM401 -20q-39 0 -59.5 19.5t-20.5 49.5q0 20 7 42.5t14 45.5t7 44q0 22 -10.5 30.5t-24.5 8.5q-30 0 -61.5 -24.5t-61 -61.5t-55.5 -77t-45 -72
q-19 0 -36 6.5t-29 22.5q1 5 11.5 30.5t23.5 61t23 74.5t10 71q7 8 21.5 16t30.5 8q35 0 35 -30q0 -12 -4.5 -35.5t-12.5 -53.5q26 35 57 66t64.5 50.5t67.5 19.5q43 0 63.5 -29t20.5 -64q0 -30 -10 -56t-19.5 -49t-9.5 -45q0 -16 7.5 -22.5t16.5 -6.5q24 0 50 23t49.5 58.5
t41.5 71.5l17 -14q-21 -49 -47.5 -89.5t-59 -65t-72.5 -24.5z" />
    <glyph glyph-name="Eng" unicode="&#x14a;" horiz-adv-x="698" 
d="M250 -244q-28 0 -45.5 7t-17.5 16q0 11 22 11q74 0 128.5 40.5t96.5 117.5t75 184q20 68 36 126.5t27.5 109t18 94.5t6.5 83q0 47 -19 78t-64 31q-41 0 -74 -25.5t-58.5 -66t-43.5 -85.5t-29 -84q-41 -141 -73 -262.5t-55 -229.5q-34 0 -59 15t-25 44q0 19 10.5 62.5
t28 102t38 123.5t40.5 129t35 117q11 37 18 68.5t10 56t3 39.5q0 20 -15 20q-19 0 -37.5 -18t-34 -45.5t-25 -57t-9.5 -52.5q0 -8 2 -18t8 -27q-42 0 -60.5 18.5t-18.5 47.5q0 34 20.5 68t53 62.5t69 46t67.5 17.5q32 0 44 -17t12 -38q0 -19 -7 -50t-18 -60q36 67 88 110
t125 43q68 0 105 -40t37 -112q0 -45 -7.5 -98t-20.5 -109.5t-29 -112.5t-33 -109q-24 -77 -55 -144t-72 -118t-95 -80t-124 -29z" />
    <glyph glyph-name="eng" unicode="&#x14b;" horiz-adv-x="474" 
d="M58 -212q-30 0 -51 6t-21 16q0 8 22 8q59 0 109.5 30t88 80.5t58.5 114t21 129.5q0 24 -8.5 36t-26.5 12q-30 0 -61.5 -24.5t-61 -61.5t-55.5 -77t-45 -72q-19 0 -36 6.5t-29 22.5q1 5 11.5 30.5t23.5 61t23 74.5t10 71q7 8 21.5 16t30.5 8q35 0 35 -30q0 -12 -4.5 -35.5
t-12.5 -53.5q26 35 57 66t64.5 50.5t67.5 19.5q43 0 63.5 -30t20.5 -70q0 -70 -23 -141.5t-65 -131t-100 -95.5t-127 -36z" />
    <glyph glyph-name="Omacron" unicode="&#x14c;" horiz-adv-x="655" 
d="M242 -87q-58 0 -106 30.5t-76 86.5t-28 134q0 77 24 155.5t66 150t98 128t119.5 89t130.5 32.5q10 0 29.5 -4t38.5 -24q-6 1 -13.5 1.5t-15.5 0.5q-52 0 -105 -32.5t-101 -87.5t-85.5 -124.5t-59.5 -144.5t-22 -146q0 -52 14 -97t45 -72.5t82 -27.5q55 0 103 33t87 88.5
t67 124t43 141t15 138.5q0 29 -4 62.5t-13.5 57.5t-27.5 24q-17 0 -37 -21.5t-39 -54.5t-33.5 -69.5t-20.5 -65.5q-34 7 -48.5 22t-14.5 36q0 27 19 60t49.5 63.5t64 50.5t62.5 20q30 0 48.5 -21.5t28.5 -55.5t14 -72.5t4 -71.5q0 -102 -25 -186.5t-67.5 -149.5t-95 -110
t-108 -68t-106.5 -23zM637 758q-23 0 -56.5 5.5t-70 13.5t-69.5 15.5t-56 10.5q11 30 50 30q36 0 78.5 -7.5t86 -18.5t78.5 -24q-12 -25 -41 -25z" />
    <glyph glyph-name="omacron" unicode="&#x14d;" horiz-adv-x="372" 
d="M66 -32q-45 0 -61.5 29.5t-16.5 64.5q0 32 10 65.5t27.5 62.5t39 46.5t43.5 17.5q7 0 16.5 -2.5t13.5 -7.5q-12 -15 -24.5 -37t-23 -46.5t-16.5 -49.5t-6 -46q0 -20 7.5 -33t26.5 -13t45.5 21.5t50.5 49.5q-32 29 -46 63.5t-14 83.5q0 21 10.5 48t34 47t63.5 20
q43 0 60.5 -24t17.5 -57q0 -37 -19.5 -83t-46.5 -87q12 -6 28 -6q15 0 36 7t41 23.5t32 44.5l18 -13q-22 -51 -58.5 -74.5t-71.5 -23.5q-13 0 -26 2.5t-24 6.5q-34 -40 -78 -70t-89 -30zM224 122q24 35 41 75t17 74q0 23 -7 33.5t-21 10.5q-19 0 -39 -27t-20 -68
q0 -21 7.5 -51t21.5 -47zM378 441q-23 0 -56.5 5.5t-70 13.5t-69.5 15.5t-56 10.5q11 30 50 30q36 0 78.5 -7.5t86 -18.5t78.5 -24q-12 -25 -41 -25z" />
    <glyph glyph-name="Obreve" unicode="&#x14e;" horiz-adv-x="655" 
d="M242 -87q-58 0 -106 30.5t-76 86.5t-28 134q0 77 24 155.5t66 150t98 128t119.5 89t130.5 32.5q10 0 29.5 -4t38.5 -24q-6 1 -13.5 1.5t-15.5 0.5q-52 0 -105 -32.5t-101 -87.5t-85.5 -124.5t-59.5 -144.5t-22 -146q0 -52 14 -97t45 -72.5t82 -27.5q55 0 103 33t87 88.5
t67 124t43 141t15 138.5q0 29 -4 62.5t-13.5 57.5t-27.5 24q-17 0 -37 -21.5t-39 -54.5t-33.5 -69.5t-20.5 -65.5q-34 7 -48.5 22t-14.5 36q0 27 19 60t49.5 63.5t64 50.5t62.5 20q30 0 48.5 -21.5t28.5 -55.5t14 -72.5t4 -71.5q0 -102 -25 -186.5t-67.5 -149.5t-95 -110
t-108 -68t-106.5 -23zM576 758q-41 0 -66 16t-35.5 38t-10.5 41q0 18 7.5 30t20.5 19q5 -29 25 -54.5t61 -25.5q36 0 58 16t33 33q8 -7 11 -16t3 -17q0 -34 -32.5 -57t-74.5 -23z" />
    <glyph glyph-name="obreve" unicode="&#x14f;" horiz-adv-x="372" 
d="M66 -32q-45 0 -61.5 29.5t-16.5 64.5q0 32 10 65.5t27.5 62.5t39 46.5t43.5 17.5q7 0 16.5 -2.5t13.5 -7.5q-12 -15 -24.5 -37t-23 -46.5t-16.5 -49.5t-6 -46q0 -20 7.5 -33t26.5 -13t45.5 21.5t50.5 49.5q-32 29 -46 63.5t-14 83.5q0 21 10.5 48t34 47t63.5 20
q43 0 60.5 -24t17.5 -57q0 -37 -19.5 -83t-46.5 -87q12 -6 28 -6q15 0 36 7t41 23.5t32 44.5l18 -13q-22 -51 -58.5 -74.5t-71.5 -23.5q-13 0 -26 2.5t-24 6.5q-34 -40 -78 -70t-89 -30zM224 122q24 35 41 75t17 74q0 23 -7 33.5t-21 10.5q-19 0 -39 -27t-20 -68
q0 -21 7.5 -51t21.5 -47zM309 424q-41 0 -66 16t-35.5 38t-10.5 41q0 18 7.5 30t20.5 19q5 -29 25 -54.5t61 -25.5q36 0 58 16t33 33q8 -7 11 -16t3 -17q0 -34 -32.5 -57t-74.5 -23z" />
    <glyph glyph-name="Ohungarumlaut" unicode="&#x150;" horiz-adv-x="655" 
d="M242 -87q-58 0 -106 30.5t-76 86.5t-28 134q0 77 24 155.5t66 150t98 128t119.5 89t130.5 32.5q10 0 29.5 -4t38.5 -24q-6 1 -13.5 1.5t-15.5 0.5q-52 0 -105 -32.5t-101 -87.5t-85.5 -124.5t-59.5 -144.5t-22 -146q0 -52 14 -97t45 -72.5t82 -27.5q55 0 103 33t87 88.5
t67 124t43 141t15 138.5q0 29 -4 62.5t-13.5 57.5t-27.5 24q-17 0 -37 -21.5t-39 -54.5t-33.5 -69.5t-20.5 -65.5q-34 7 -48.5 22t-14.5 36q0 27 19 60t49.5 63.5t64 50.5t62.5 20q30 0 48.5 -21.5t28.5 -55.5t14 -72.5t4 -71.5q0 -102 -25 -186.5t-67.5 -149.5t-95 -110
t-108 -68t-106.5 -23zM558 748q-8 5 -11.5 13t-3.5 15q0 12 9 32t23 40t30 34t31 14q14 0 21.5 -8t12.5 -19q-32 -31 -60.5 -62t-51.5 -59zM490 764q-9 3 -15.5 10t-6.5 22q0 13 6.5 33t17 40t24 34t27.5 14q10 0 18 -6.5t14 -20.5q-28 -35 -49 -65.5t-36 -60.5z" />
    <glyph glyph-name="ohungarumlaut" unicode="&#x151;" horiz-adv-x="372" 
d="M66 -32q-45 0 -61.5 29.5t-16.5 64.5q0 32 10 65.5t27.5 62.5t39 46.5t43.5 17.5q7 0 16.5 -2.5t13.5 -7.5q-12 -15 -24.5 -37t-23 -46.5t-16.5 -49.5t-6 -46q0 -20 7.5 -33t26.5 -13t45.5 21.5t50.5 49.5q-32 29 -46 63.5t-14 83.5q0 21 10.5 48t34 47t63.5 20
q43 0 60.5 -24t17.5 -57q0 -37 -19.5 -83t-46.5 -87q12 -6 28 -6q15 0 36 7t41 23.5t32 44.5l18 -13q-22 -51 -58.5 -74.5t-71.5 -23.5q-13 0 -26 2.5t-24 6.5q-34 -40 -78 -70t-89 -30zM224 122q24 35 41 75t17 74q0 23 -7 33.5t-21 10.5q-19 0 -39 -27t-20 -68
q0 -21 7.5 -51t21.5 -47zM295 427q-8 5 -11.5 13t-3.5 15q0 12 9 32t23 40t30 34t31 14q14 0 21.5 -8t12.5 -19q-32 -31 -60.5 -62t-51.5 -59zM227 443q-9 3 -15.5 10t-6.5 22q0 13 6.5 33t17 40t24 34t27.5 14q10 0 18 -6.5t14 -20.5q-28 -35 -49 -65.5t-36 -60.5z" />
    <glyph glyph-name="OE" unicode="&#x152;" horiz-adv-x="848" 
d="M447 -88q-43 0 -89 0.5t-91 0.5q-68 0 -121 27t-83.5 82.5t-30.5 141.5q0 77 24 155.5t66.5 150t97 128t116 89t123.5 32.5q20 0 37 -4.5t29 -21.5q-57 0 -113 -32.5t-105.5 -88t-88 -125t-60.5 -144t-22 -145.5q0 -52 14 -97t44.5 -72.5t79.5 -27.5t92 33t78.5 88.5
t61.5 125t40 143.5t14 143q0 68 -9 96.5t-20 28.5q-14 0 -34 -30t-41 -76t-40 -94q-32 8 -47 22.5t-15 33.5q0 27 18.5 60.5t48 64t62 51t60.5 21.5q26 2 59 2.5t64 0.5q62 0 120.5 -4t91.5 -15q-7 -20 -35 -30t-67.5 -13.5t-82.5 -3.5q-16 0 -33.5 1t-41.5 1q5 -16 7.5 -41
t2.5 -44q0 -27 -1 -56.5t-3 -55t-4 -42.5q62 -1 117.5 -3.5t95.5 -7.5q-10 -28 -48.5 -45t-104.5 -17q-28 0 -42.5 0.5t-29.5 1.5q-17 -77 -34.5 -140t-43.5 -111t-69 -79q36 -1 72.5 -1h79.5q15 0 37.5 1t46.5 2t40 1q8 0 14.5 -0.5t15.5 -2.5q-6 -16 -37.5 -27t-79 -18
t-100.5 -10.5t-103 -3.5z" />
    <glyph glyph-name="oe" unicode="&#x153;" horiz-adv-x="553" 
d="M56 -47q-34 0 -59 22t-25 66q0 35 16 76t44 81t64.5 73t77 53t80.5 20q30 0 45 -11t24 -28q31 23 68.5 39t71.5 16q25 0 47.5 -13t22.5 -53q0 -38 -22 -71t-59 -59t-81.5 -42.5t-89.5 -21.5q-1 -7 -1.5 -14.5t-0.5 -9.5q0 -17 5.5 -35t21.5 -30t47 -12q42 0 85 23.5
t80 63t62 86.5l17 -15q-27 -60 -69 -105.5t-93 -70.5t-105 -25q-60 0 -90.5 29t-36.5 68q-40 -49 -75 -74.5t-72 -25.5zM78 6q13 0 31 10.5t37 26.5t34.5 32.5t22.5 29.5l1 6q-27 10 -43.5 31.5t-22.5 47.5q-1 8 -2.5 16t-1.5 16q-22 -28 -40.5 -62t-29.5 -67t-11 -58
q0 -16 7.5 -22.5t17.5 -6.5zM215 152q13 33 33 65.5t48 59.5q-4 11 -14.5 20t-25.5 9q-19 0 -35.5 -15.5t-26.5 -38.5t-10 -45q0 -19 8.5 -31.5t22.5 -23.5zM291 137q28 10 60 26.5t60.5 38t46.5 46.5t18 51q0 8 -3 12t-14 4q-22 0 -47 -16t-49 -42.5t-42.5 -57.5t-29.5 -62
z" />
    <glyph glyph-name="Racute" unicode="&#x154;" horiz-adv-x="616" 
d="M505 -121q-24 0 -55 26t-64.5 68t-66 92.5t-61.5 101.5t-49 92q-27 -92 -51.5 -181.5t-46.5 -165.5q-29 0 -54.5 16t-25.5 42q0 11 5 26t9 29q29 87 52 155.5t43.5 126t42 114t47.5 118.5t60 140q-39 -8 -68.5 -21t-48 -23t-25.5 -10q-5 0 -15 6.5t-17.5 16t-7.5 16.5
q28 11 65.5 24t82.5 22.5t93 9.5q45 0 93 -10.5t89 -33.5t66 -60t25 -89q0 -47 -21 -81.5t-56 -58.5t-77 -39t-85 -23.5t-79.5 -11.5t-60.5 -4q32 -51 63 -99t66.5 -95.5t82.5 -95t111 -96.5q-4 -20 -24.5 -32t-36.5 -12zM232 339q56 4 110.5 18t99 39t71 62.5t26.5 88.5
q0 52 -26 81.5t-67 42.5t-86 14q-34 -67 -66 -157.5t-62 -188.5zM502 748q-13 5 -18.5 16.5t-5.5 16.5q0 8 10 26.5t26 39t33.5 35t33.5 14.5q11 0 19.5 -7.5t10.5 -27.5q-35 -34 -61.5 -59.5t-47.5 -53.5z" />
    <glyph glyph-name="racute" unicode="&#x155;" horiz-adv-x="364" 
d="M185 -26q-37 0 -60 19.5t-23 52.5q0 28 14 60t28.5 63t14.5 55q0 23 -15 38.5t-35 25.5q-22 -55 -49.5 -106.5t-44.5 -80.5l-15 29q14 26 37 74t44 107q-10 10 -10 27q0 26 16 49t31 23q12 0 17.5 -13.5t5.5 -18.5t-4.5 -18t-6.5 -19q1 -11 17.5 -21.5t37.5 -24.5t37 -35
t16 -53q0 -29 -13 -59t-26 -56t-13 -45q0 -14 7.5 -18.5t17.5 -4.5q24 0 50 14.5t51 37.5t44 48.5t29 46.5l24 -18q-19 -43 -55 -84.5t-80 -68t-89 -26.5zM294 476q-13 5 -18.5 16.5t-5.5 16.5q0 8 10 26.5t26 39t33.5 35t33.5 14.5q11 0 19.5 -7.5t10.5 -27.5
q-35 -34 -61.5 -59.5t-47.5 -53.5z" />
    <glyph glyph-name="uni0156" unicode="&#x156;" horiz-adv-x="616" 
d="M505 -121q-24 0 -55 26t-64.5 68t-66 92.5t-61.5 101.5t-49 92q-27 -92 -51.5 -181.5t-46.5 -165.5q-29 0 -54.5 16t-25.5 42q0 11 5 26t9 29q29 87 52 155.5t43.5 126t42 114t47.5 118.5t60 140q-39 -8 -68.5 -21t-48 -23t-25.5 -10q-5 0 -15 6.5t-17.5 16t-7.5 16.5
q28 11 65.5 24t82.5 22.5t93 9.5q45 0 93 -10.5t89 -33.5t66 -60t25 -89q0 -47 -21 -81.5t-56 -58.5t-77 -39t-85 -23.5t-79.5 -11.5t-60.5 -4q32 -51 63 -99t66.5 -95.5t82.5 -95t111 -96.5q-4 -20 -24.5 -32t-36.5 -12zM232 339q56 4 110.5 18t99 39t71 62.5t26.5 88.5
q0 52 -26 81.5t-67 42.5t-86 14q-34 -67 -66 -157.5t-62 -188.5zM223 -259q-13 8 -20 19.5t-7 24.5q0 20 9 44t23.5 41.5t30.5 17.5q13 0 22.5 -10t9.5 -23q-24 -27 -37 -52t-31 -62z" />
    <glyph glyph-name="uni0157" unicode="&#x157;" horiz-adv-x="363" 
d="M185 -26q-37 0 -60 19.5t-23 52.5q0 28 14 60t28.5 63t14.5 55q0 23 -15 38.5t-35 25.5q-22 -55 -49.5 -106.5t-44.5 -80.5l-15 29q14 26 37 74t44 107q-10 10 -10 27q0 26 16 49t31 23q12 0 17.5 -13.5t5.5 -18.5t-4.5 -18t-6.5 -19q1 -11 17.5 -21.5t37.5 -24.5t37 -35
t16 -53q0 -29 -13 -59t-26 -56t-13 -45q0 -14 7.5 -18.5t17.5 -4.5q24 0 50 14.5t51 37.5t44 48.5t29 46.5l24 -18q-19 -43 -55 -84.5t-80 -68t-89 -26.5zM29 -203q-13 8 -20 19.5t-7 24.5q0 20 9 44t23.5 41.5t30.5 17.5q13 0 22.5 -10t9.5 -23q-24 -27 -37 -52t-31 -62z
" />
    <glyph glyph-name="Rcaron" unicode="&#x158;" horiz-adv-x="616" 
d="M505 -121q-24 0 -55 26t-64.5 68t-66 92.5t-61.5 101.5t-49 92q-27 -92 -51.5 -181.5t-46.5 -165.5q-29 0 -54.5 16t-25.5 42q0 11 5 26t9 29q29 87 52 155.5t43.5 126t42 114t47.5 118.5t60 140q-39 -8 -68.5 -21t-48 -23t-25.5 -10q-5 0 -15 6.5t-17.5 16t-7.5 16.5
q28 11 65.5 24t82.5 22.5t93 9.5q45 0 93 -10.5t89 -33.5t66 -60t25 -89q0 -47 -21 -81.5t-56 -58.5t-77 -39t-85 -23.5t-79.5 -11.5t-60.5 -4q32 -51 63 -99t66.5 -95.5t82.5 -95t111 -96.5q-4 -20 -24.5 -32t-36.5 -12zM232 339q56 4 110.5 18t99 39t71 62.5t26.5 88.5
q0 52 -26 81.5t-67 42.5t-86 14q-34 -67 -66 -157.5t-62 -188.5zM481 754q-14 0 -31.5 12t-33.5 31t-26 39.5t-10 37.5q0 11 5.5 20.5t18.5 15.5q16 -30 34 -53t43 -45q30 12 55.5 27.5t46.5 32.5q8 -5 12.5 -13t4.5 -16q0 -15 -14 -30.5t-34.5 -29t-40 -21.5t-30.5 -8z" />
    <glyph glyph-name="rcaron" unicode="&#x159;" horiz-adv-x="364" 
d="M185 -26q-37 0 -60 19.5t-23 52.5q0 28 14 60t28.5 63t14.5 55q0 23 -15 38.5t-35 25.5q-22 -55 -49.5 -106.5t-44.5 -80.5l-15 29q14 26 37 74t44 107q-10 10 -10 27q0 26 16 49t31 23q12 0 17.5 -13.5t5.5 -18.5t-4.5 -18t-6.5 -19q1 -11 17.5 -21.5t37.5 -24.5t37 -35
t16 -53q0 -29 -13 -59t-26 -56t-13 -45q0 -14 7.5 -18.5t17.5 -4.5q24 0 50 14.5t51 37.5t44 48.5t29 46.5l24 -18q-19 -43 -55 -84.5t-80 -68t-89 -26.5zM298 476q-14 0 -31.5 12t-33.5 31t-26 39.5t-10 37.5q0 11 5.5 20.5t18.5 15.5q16 -30 34 -53t43 -45
q30 12 55.5 27.5t46.5 32.5q8 -5 12.5 -13t4.5 -16q0 -15 -14 -30.5t-34.5 -29t-40 -21.5t-30.5 -8z" />
    <glyph glyph-name="Sacute" unicode="&#x15a;" horiz-adv-x="567" 
d="M233 -87q-58 0 -110.5 20t-85.5 61t-33 102q0 54 24 84.5t60 42.5t70 12q-32 -34 -48.5 -70t-16.5 -69q0 -34 17.5 -63.5t52.5 -48t87 -18.5q45 0 87.5 15t70 45t27.5 75q0 41 -23.5 70.5t-60.5 53t-78 45t-78 46.5t-60.5 58t-23.5 79q0 41 20.5 87.5t58.5 87.5t92 66.5
t120 25.5q69 0 97 -29t28 -76q0 -37 -13 -79t-31.5 -80t-35.5 -65q-22 5 -33 17.5t-11 33.5t8.5 47t20 54t20 54.5t8.5 46.5q0 18 -10.5 28t-42.5 10q-48 0 -88 -21t-69.5 -53t-45.5 -67.5t-16 -64.5q0 -36 23 -61.5t59.5 -46.5t77 -42t77 -47t59.5 -62t23 -88t-23.5 -92
t-63.5 -67.5t-88.5 -42t-98.5 -14.5zM477 738q-13 5 -18.5 16.5t-5.5 16.5q0 8 10 26.5t26 39t33.5 35t33.5 14.5q11 0 19.5 -7.5t10.5 -27.5q-35 -34 -61.5 -59.5t-47.5 -53.5z" />
    <glyph glyph-name="sacute" unicode="&#x15b;" horiz-adv-x="351" 
d="M117 -51q-50 0 -80.5 20.5t-43.5 52t-13 64.5q0 29 8 45t20 23.5t22.5 11.5t15.5 9q25 26 51.5 60.5t45.5 76.5v10q0 40 13.5 56.5t31.5 16.5q12 0 17.5 -6t6.5 -14q0 -6 -2.5 -14t-2.5 -22q0 -30 14.5 -68.5t29 -81.5t14.5 -88q0 -12 -1 -22t-3 -19q31 8 61 34.5
t57 78.5l12 -9q-19 -57 -55 -91.5t-84 -42.5q-16 -41 -52.5 -61t-82.5 -20zM110 -7q20 0 37 10t27 29q-41 9 -74 32t-51 47q-14 -3 -14 -27q0 -33 19 -62t56 -29zM182 62q2 7 2.5 16.5t0.5 14.5q-1 45 -12 89t-22 90q-18 -31 -42 -67t-45 -58q16 -27 47 -51t71 -34zM211 467
q-13 5 -18.5 16.5t-5.5 16.5q0 8 10 26.5t26 39t33.5 35t33.5 14.5q11 0 19.5 -7.5t10.5 -27.5q-35 -34 -61.5 -59.5t-47.5 -53.5z" />
    <glyph glyph-name="Scircumflex" unicode="&#x15c;" horiz-adv-x="567" 
d="M233 -87q-58 0 -110.5 20t-85.5 61t-33 102q0 54 24 84.5t60 42.5t70 12q-32 -34 -48.5 -70t-16.5 -69q0 -34 17.5 -63.5t52.5 -48t87 -18.5q45 0 87.5 15t70 45t27.5 75q0 41 -23.5 70.5t-60.5 53t-78 45t-78 46.5t-60.5 58t-23.5 79q0 41 20.5 87.5t58.5 87.5t92 66.5
t120 25.5q69 0 97 -29t28 -76q0 -37 -13 -79t-31.5 -80t-35.5 -65q-22 5 -33 17.5t-11 33.5t8.5 47t20 54t20 54.5t8.5 46.5q0 18 -10.5 28t-42.5 10q-48 0 -88 -21t-69.5 -53t-45.5 -67.5t-16 -64.5q0 -36 23 -61.5t59.5 -46.5t77 -42t77 -47t59.5 -62t23 -88t-23.5 -92
t-63.5 -67.5t-88.5 -42t-98.5 -14.5zM566 734q-16 27 -33.5 45.5t-38.5 37.5q-27 -9 -51.5 -22t-50.5 -30q-7 5 -10 14t-3 14q0 15 13.5 30t33.5 27.5t39 20.5t30 8q12 0 28.5 -10.5t32 -27t25.5 -35t10 -33.5q0 -10 -5.5 -21t-19.5 -18z" />
    <glyph glyph-name="scircumflex" unicode="&#x15d;" horiz-adv-x="351" 
d="M117 -51q-50 0 -80.5 20.5t-43.5 52t-13 64.5q0 29 8 45t20 23.5t22.5 11.5t15.5 9q25 26 51.5 60.5t45.5 76.5v10q0 40 13.5 56.5t31.5 16.5q12 0 17.5 -6t6.5 -14q0 -6 -2.5 -14t-2.5 -22q0 -30 14.5 -68.5t29 -81.5t14.5 -88q0 -12 -1 -22t-3 -19q31 8 61 34.5
t57 78.5l12 -9q-19 -57 -55 -91.5t-84 -42.5q-16 -41 -52.5 -61t-82.5 -20zM110 -7q20 0 37 10t27 29q-41 9 -74 32t-51 47q-14 -3 -14 -27q0 -33 19 -62t56 -29zM182 62q2 7 2.5 16.5t0.5 14.5q-1 45 -12 89t-22 90q-18 -31 -42 -67t-45 -58q16 -27 47 -51t71 -34zM300 459
q-16 27 -33.5 45.5t-38.5 37.5q-27 -9 -51.5 -22t-50.5 -30q-7 5 -10 14t-3 14q0 15 13.5 30t33.5 27.5t39 20.5t30 8q12 0 28.5 -10.5t32 -27t25.5 -35t10 -33.5q0 -10 -5.5 -21t-19.5 -18z" />
    <glyph glyph-name="Scedilla" unicode="&#x15e;" horiz-adv-x="567" 
d="M233 -87q-58 0 -110.5 20t-85.5 61t-33 102q0 54 24 84.5t60 42.5t70 12q-32 -34 -48.5 -70t-16.5 -69q0 -34 17.5 -63.5t52.5 -48t87 -18.5q45 0 87.5 15t70 45t27.5 75q0 41 -23.5 70.5t-60.5 53t-78 45t-78 46.5t-60.5 58t-23.5 79q0 41 20.5 87.5t58.5 87.5t92 66.5
t120 25.5q69 0 97 -29t28 -76q0 -37 -13 -79t-31.5 -80t-35.5 -65q-22 5 -33 17.5t-11 33.5t8.5 47t20 54t20 54.5t8.5 46.5q0 18 -10.5 28t-42.5 10q-48 0 -88 -21t-69.5 -53t-45.5 -67.5t-16 -64.5q0 -36 23 -61.5t59.5 -46.5t77 -42t77 -47t59.5 -62t23 -88t-23.5 -92
t-63.5 -67.5t-88.5 -42t-98.5 -14.5zM167 -306q-30 0 -48 13.5t-18 27.5q0 9 8 20.5t24 22.5q8 -25 18.5 -35t21.5 -10q17 0 35.5 14.5t32 34t13.5 34.5q0 8 -4.5 12t-11.5 4q-12 0 -27 -9t-29 -18.5t-23 -9.5t-15 9t-6 16q0 2 9 15t23 31.5t28 35.5t24 25h16l-47 -75
q8 3 23 7.5t31 4.5q23 0 38.5 -12.5t15.5 -37.5q0 -27 -18.5 -54.5t-48.5 -46.5t-65 -19z" />
    <glyph glyph-name="scedilla" unicode="&#x15f;" horiz-adv-x="351" 
d="M117 -51q-50 0 -80.5 20.5t-43.5 52t-13 64.5q0 29 8 45t20 23.5t22.5 11.5t15.5 9q25 26 51.5 60.5t45.5 76.5v10q0 40 13.5 56.5t31.5 16.5q12 0 17.5 -6t6.5 -14q0 -6 -2.5 -14t-2.5 -22q0 -30 14.5 -68.5t29 -81.5t14.5 -88q0 -12 -1 -22t-3 -19q31 8 61 34.5
t57 78.5l12 -9q-19 -57 -55 -91.5t-84 -42.5q-16 -41 -52.5 -61t-82.5 -20zM110 -7q20 0 37 10t27 29q-41 9 -74 32t-51 47q-14 -3 -14 -27q0 -33 19 -62t56 -29zM182 62q2 7 2.5 16.5t0.5 14.5q-1 45 -12 89t-22 90q-18 -31 -42 -67t-45 -58q16 -27 47 -51t71 -34zM41 -263
q-30 0 -48 13.5t-18 27.5q0 9 8 20.5t24 22.5q8 -25 18.5 -35t21.5 -10q17 0 35.5 14.5t32 34t13.5 34.5q0 8 -4.5 12t-11.5 4q-12 0 -27 -9t-29 -18.5t-23 -9.5t-15 9t-6 16q0 2 9 15t23 31.5t28 35.5t24 25h16l-47 -75q8 3 23 7.5t31 4.5q23 0 38.5 -12.5t15.5 -37.5
q0 -27 -18.5 -54.5t-48.5 -46.5t-65 -19z" />
    <glyph glyph-name="Scaron" unicode="&#x160;" horiz-adv-x="567" 
d="M233 -87q-58 0 -110.5 20t-85.5 61t-33 102q0 54 24 84.5t60 42.5t70 12q-32 -34 -48.5 -70t-16.5 -69q0 -34 17.5 -63.5t52.5 -48t87 -18.5q45 0 87.5 15t70 45t27.5 75q0 41 -23.5 70.5t-60.5 53t-78 45t-78 46.5t-60.5 58t-23.5 79q0 41 20.5 87.5t58.5 87.5t92 66.5
t120 25.5q69 0 97 -29t28 -76q0 -37 -13 -79t-31.5 -80t-35.5 -65q-22 5 -33 17.5t-11 33.5t8.5 47t20 54t20 54.5t8.5 46.5q0 18 -10.5 28t-42.5 10q-48 0 -88 -21t-69.5 -53t-45.5 -67.5t-16 -64.5q0 -36 23 -61.5t59.5 -46.5t77 -42t77 -47t59.5 -62t23 -88t-23.5 -92
t-63.5 -67.5t-88.5 -42t-98.5 -14.5zM456 744q-14 0 -31.5 12t-33.5 31t-26 39.5t-10 37.5q0 11 5.5 20.5t18.5 15.5q16 -30 34 -53t43 -45q30 12 55.5 27.5t46.5 32.5q8 -5 12.5 -13t4.5 -16q0 -15 -14 -30.5t-34.5 -29t-40 -21.5t-30.5 -8z" />
    <glyph glyph-name="scaron" unicode="&#x161;" horiz-adv-x="351" 
d="M117 -51q-50 0 -80.5 20.5t-43.5 52t-13 64.5q0 29 8 45t20 23.5t22.5 11.5t15.5 9q25 26 51.5 60.5t45.5 76.5v10q0 40 13.5 56.5t31.5 16.5q12 0 17.5 -6t6.5 -14q0 -6 -2.5 -14t-2.5 -22q0 -30 14.5 -68.5t29 -81.5t14.5 -88q0 -12 -1 -22t-3 -19q31 8 61 34.5
t57 78.5l12 -9q-19 -57 -55 -91.5t-84 -42.5q-16 -41 -52.5 -61t-82.5 -20zM110 -7q20 0 37 10t27 29q-41 9 -74 32t-51 47q-14 -3 -14 -27q0 -33 19 -62t56 -29zM182 62q2 7 2.5 16.5t0.5 14.5q-1 45 -12 89t-22 90q-18 -31 -42 -67t-45 -58q16 -27 47 -51t71 -34zM214 467
q-14 0 -31.5 12t-33.5 31t-26 39.5t-10 37.5q0 11 5.5 20.5t18.5 15.5q16 -30 34 -53t43 -45q30 12 55.5 27.5t46.5 32.5q8 -5 12.5 -13t4.5 -16q0 -15 -14 -30.5t-34.5 -29t-40 -21.5t-30.5 -8z" />
    <glyph glyph-name="uni0162" unicode="&#x162;" horiz-adv-x="540" 
d="M233 -87q-55 0 -76 21.5t-22 55.5q0 29 11.5 69.5t23.5 77.5q24 71 50 140t52.5 133t51 122t45.5 107q-68 -1 -117.5 -4t-90.5 -7.5t-85 -12.5q5 42 39.5 64.5t92.5 31.5t133 9q39 0 73.5 -1.5t66 -4.5t61.5 -6q63 -6 100.5 -8t53.5 -2q-30 -28 -75.5 -40.5t-95.5 -15.5
t-95 -3q-48 -118 -88 -245t-74 -251q-13 -48 -21.5 -81.5t-12.5 -61t-4 -58.5q0 -5 0.5 -11.5t2.5 -17.5zM121 -306q-30 0 -48 13.5t-18 27.5q0 9 8 20.5t24 22.5q8 -25 18.5 -35t21.5 -10q17 0 35.5 14.5t32 34t13.5 34.5q0 8 -4.5 12t-11.5 4q-12 0 -27 -9t-29 -18.5
t-23 -9.5t-15 9t-6 16q0 2 9 15t23 31.5t28 35.5t24 25h16l-47 -75q8 3 23 7.5t31 4.5q23 0 38.5 -12.5t15.5 -37.5q0 -27 -18.5 -54.5t-48.5 -46.5t-65 -19z" />
    <glyph glyph-name="uni0163" unicode="&#x163;" horiz-adv-x="288" 
d="M91 -46q-44 0 -71 26t-27 79q0 41 15.5 102t39.5 126q-7 2 -16.5 3.5t-18.5 5.5v31q16 -2 26.5 -3t21.5 -2q21 53 45.5 102.5t49 88.5t46.5 61.5t39 22.5q10 0 19 -7.5t9 -21.5q0 -20 -20.5 -57t-50.5 -86.5t-58 -105.5h16h15q44 0 79.5 1.5t72.5 5.5v-33q-55 -5 -101 -8
t-88 -4h-6h-6q-21 -49 -36.5 -100.5t-15.5 -100.5q0 -41 13 -58t41 -17q50 0 102.5 45.5t91.5 123.5l14 -10q-26 -59 -64.5 -107t-83.5 -75.5t-93 -27.5zM40 -253q-30 0 -48 13.5t-18 27.5q0 9 8 20.5t24 22.5q8 -25 18.5 -35t21.5 -10q17 0 35.5 14.5t32 34t13.5 34.5
q0 8 -4.5 12t-11.5 4q-12 0 -27 -9t-29 -18.5t-23 -9.5t-15 9t-6 16q0 2 9 15t23 31.5t28 35.5t24 25h16l-47 -75q8 3 23 7.5t31 4.5q23 0 38.5 -12.5t15.5 -37.5q0 -27 -18.5 -54.5t-48.5 -46.5t-65 -19z" />
    <glyph glyph-name="Tcaron" unicode="&#x164;" horiz-adv-x="540" 
d="M233 -87q-55 0 -76 21.5t-22 55.5q0 29 11.5 69.5t23.5 77.5q24 71 50 140t52.5 133t51 122t45.5 107q-68 -1 -117.5 -4t-90.5 -7.5t-85 -12.5q5 42 39.5 64.5t92.5 31.5t133 9q39 0 73.5 -1.5t66 -4.5t61.5 -6q63 -6 100.5 -8t53.5 -2q-30 -28 -75.5 -40.5t-95.5 -15.5
t-95 -3q-48 -118 -88 -245t-74 -251q-13 -48 -21.5 -81.5t-12.5 -61t-4 -58.5q0 -5 0.5 -11.5t2.5 -17.5zM453 754q-14 0 -31.5 12t-33.5 31t-26 39.5t-10 37.5q0 11 5.5 20.5t18.5 15.5q16 -30 34 -53t43 -45q30 12 55.5 27.5t46.5 32.5q8 -5 12.5 -13t4.5 -16
q0 -15 -14 -30.5t-34.5 -29t-40 -21.5t-30.5 -8z" />
    <glyph glyph-name="tcaron" unicode="&#x165;" horiz-adv-x="288" 
d="M91 -46q-44 0 -71 26t-27 79q0 41 15.5 102t39.5 126q-7 2 -16.5 3.5t-18.5 5.5v31q16 -2 26.5 -3t21.5 -2q21 53 45.5 102.5t49 88.5t46.5 61.5t39 22.5q10 0 19 -7.5t9 -21.5q0 -20 -20.5 -57t-50.5 -86.5t-58 -105.5h16h15q44 0 79.5 1.5t72.5 5.5v-33q-55 -5 -101 -8
t-88 -4h-6h-6q-21 -49 -36.5 -100.5t-15.5 -100.5q0 -41 13 -58t41 -17q50 0 102.5 45.5t91.5 123.5l14 -10q-26 -59 -64.5 -107t-83.5 -75.5t-93 -27.5zM304 391q-10 0 -20 8.5t-10 24.5q0 20 15 43.5t36.5 40.5t40.5 17q11 0 21 -8q-18 -26 -35 -58.5t-29 -61.5
q-7 -6 -19 -6z" />
    <glyph glyph-name="Tbar" unicode="&#x166;" horiz-adv-x="541" 
d="M62 353q2 24 34 41t82 25.5t103 8.5q82 0 152 -1.5t136 -6.5q-5 -23 -34.5 -34t-89.5 -14t-155 -3q-86 0 -138 -3.5t-90 -12.5zM233 -87q-55 0 -76 21.5t-22 55.5q0 29 11.5 69.5t23.5 77.5q24 71 50 140t52.5 133t51 122t45.5 107q-68 -1 -117.5 -4t-90.5 -7.5
t-85 -12.5q5 42 39.5 64.5t92.5 31.5t133 9q39 0 73.5 -1.5t66 -4.5t61.5 -6q63 -6 100.5 -8t53.5 -2q-30 -28 -75.5 -40.5t-95.5 -15.5t-95 -3q-48 -118 -88 -245t-74 -251q-13 -48 -21.5 -81.5t-12.5 -61t-4 -58.5q0 -5 0.5 -11.5t2.5 -17.5z" />
    <glyph glyph-name="tbar" unicode="&#x167;" horiz-adv-x="289" 
d="M91 -46q-44 0 -71 26t-27 79q0 41 17 106t46 145q22 55 47 106.5t50 92t48 64.5t40 24q10 0 19 -7.5t9 -21.5q0 -20 -22 -59.5t-53.5 -91.5t-59.5 -111q-34 -75 -49 -126.5t-15 -99.5q0 -41 13 -58t41 -17q50 0 102.5 45.5t91.5 123.5l14 -10q-26 -59 -64.5 -107
t-83.5 -75.5t-93 -27.5zM181 223q-15 0 -43 3t-60.5 6t-62.5 3q-16 0 -30 -1t-25 -3q8 22 32 31t67 9q26 0 67.5 -3.5t84.5 -8t70 -8.5q-22 -18 -47.5 -23t-52.5 -5zM124 318q-22 0 -43 2.5t-38 6t-28 6.5v31q30 -4 52 -6t44 -2q62 0 113.5 1.5t100.5 5.5v-33
q-59 -6 -108 -9t-93 -3z" />
    <glyph glyph-name="Utilde" unicode="&#x168;" horiz-adv-x="750" 
d="M588 -99q-37 0 -63.5 33t-26.5 79q0 8 0.5 22t1.5 30q-36 -67 -88 -110t-125 -43q-67 0 -104.5 40t-37.5 112q0 44 12 95.5t30 106.5t36 110.5t30 109.5t12 102q0 90 -54 90q-27 0 -46 -17t-31.5 -42.5t-18.5 -51.5t-6 -44q0 -15 4 -32.5t9 -31.5q-48 0 -68.5 22
t-20.5 55q0 31 15 63t42.5 59.5t64.5 44t80 16.5q61 0 88.5 -35t27.5 -94q0 -37 -9 -82t-23 -93t-28 -93q-25 -81 -41 -140.5t-16 -106.5q0 -46 19 -77.5t64 -31.5q41 0 75 25.5t59.5 66t43.5 85.5t27 84q14 59 31 126t35.5 132t37.5 118t37.5 84.5t36.5 31.5
q10 0 27.5 -10.5t36.5 -28.5q-9 -7 -26 -42t-38 -90t-42.5 -121t-39 -135.5t-28.5 -133.5t-11 -114q0 -62 21 -82t73 -20q-11 -19 -37 -30t-48 -11zM594 755q-28 0 -58 12t-59.5 24t-55.5 12q-17 0 -32.5 -2.5t-32.5 -10.5q12 30 35 44.5t55 14.5q28 0 57.5 -12t58.5 -24
t57 -12q30 0 59 10q-14 -27 -33.5 -41.5t-50.5 -14.5z" />
    <glyph glyph-name="utilde" unicode="&#x169;" horiz-adv-x="441" 
d="M76 -30q-34 0 -55.5 31.5t-21.5 72.5q0 28 9 66t23.5 74t30 60t28.5 24q7 0 21.5 -7.5t25.5 -18.5q-11 -16 -26.5 -49t-27.5 -71t-12 -69q0 -4 1.5 -19t7.5 -28t21 -13q17 0 36.5 18.5t40 48t40 63.5t35 66t25.5 54q9 -1 23.5 -5t25.5 -10.5t11 -18.5q0 -3 -9.5 -24.5
t-22 -51.5t-22 -61.5t-9.5 -55.5q0 -14 5.5 -24.5t21.5 -10.5q21 0 50 19t60 55t55 86l15 -12q-22 -54 -57 -97t-75 -67.5t-78 -24.5q-29 0 -43.5 13.5t-19.5 35t-6 43.5v10.5v9.5q-17 -27 -37 -52.5t-42.5 -42.5t-47.5 -17zM342 357q-28 0 -58 12t-59.5 24t-55.5 12
q-17 0 -32.5 -2.5t-32.5 -10.5q12 30 35 44.5t55 14.5q28 0 57.5 -12t58.5 -24t57 -12q30 0 59 10q-14 -27 -33.5 -41.5t-50.5 -14.5z" />
    <glyph glyph-name="Umacron" unicode="&#x16a;" horiz-adv-x="750" 
d="M588 -99q-37 0 -63.5 33t-26.5 79q0 8 0.5 22t1.5 30q-36 -67 -88 -110t-125 -43q-67 0 -104.5 40t-37.5 112q0 44 12 95.5t30 106.5t36 110.5t30 109.5t12 102q0 90 -54 90q-27 0 -46 -17t-31.5 -42.5t-18.5 -51.5t-6 -44q0 -15 4 -32.5t9 -31.5q-48 0 -68.5 22
t-20.5 55q0 31 15 63t42.5 59.5t64.5 44t80 16.5q61 0 88.5 -35t27.5 -94q0 -37 -9 -82t-23 -93t-28 -93q-25 -81 -41 -140.5t-16 -106.5q0 -46 19 -77.5t64 -31.5q41 0 75 25.5t59.5 66t43.5 85.5t27 84q14 59 31 126t35.5 132t37.5 118t37.5 84.5t36.5 31.5
q10 0 27.5 -10.5t36.5 -28.5q-9 -7 -26 -42t-38 -90t-42.5 -121t-39 -135.5t-28.5 -133.5t-11 -114q0 -62 21 -82t73 -20q-11 -19 -37 -30t-48 -11zM608 758q-23 0 -56.5 5.5t-70 13.5t-69.5 15.5t-56 10.5q11 30 50 30q36 0 78.5 -7.5t86 -18.5t78.5 -24q-12 -25 -41 -25z
" />
    </font>
</defs>
</svg>
